<?xml version="1.0" standalone="no"?>
<!DOCTYPE svg PUBLIC "-//W3C//DTD SVG 1.1//EN" "http://www.w3.org/Graphics/SVG/1.1/DTD/svg11.dtd">
<svg xmlns="http://www.w3.org/2000/svg">
<metadata>Generated by Fontastic.me</metadata>
<defs>
<font id="sports-48-x-48" horiz-adv-x="512">
<font-face font-family="sports-48-x-48" units-per-em="512" ascent="480" descent="-32"/>
<missing-glyph horiz-adv-x="512" />

<glyph unicode="&#97;" d="M453 128c-6 0-12 1-19 4l-97 50c-32-32-76-50-122-50-26 0-53 7-77 19l-49 26c-40 20-69 53-82 95-12 42-8 85 12 123l16 31c28 53 83 86 145 86 27 0 54-6 78-19l49-26c66-34 102-108 88-179l97-49c9-6 17-15 20-26 3-10 2-22-3-32l-17-32c-8-12-23-21-39-21z m-120 80l112-57c3-1 6-2 9-2 8 0 15 5 20 11l17 32c3 4 3 10 2 15-1 5-6 10-10 12l-112 57 2 9c16 65-14 133-74 164l-49 26c-22 10-45 16-69 16-53 0-101-29-126-75l-17-32c-18-33-21-70-9-107 12-36 36-65 70-83l49-25c22-11 44-16 69-16 42 0 83 18 110 49z m11 211l19-10-143-270-19 10z m-38-419c-11 0-21 2-31 7-32 18-45 56-28 87 11 21 34 34 58 34 11 0 21-2 31-7 32-18 45-56 28-87-11-21-33-34-58-34z m-1 108c-16 0-31-9-38-24-11-21-4-47 19-58 6-4 14-6 21-6 16 0 31 9 39 24 10 21 3 47-20 58-7 4-13 6-21 6z"/>
<glyph unicode="&#98;" d="M461 0l-180 0-4 6c-1 1-2 5-6 16-2 7-4 12-5 14l19 10c1-1 2-4 5-15 1-2 2-5 3-8l152 0c14 38 21 82 21 126 0 88-41 145-71 188-4 4-8 10-11 15-9 12-7 37 1 48 5 7 13 14 20 19 13 10 20 16 20 27 0 25-24 45-55 45-31 0-54-20-54-45 0-10 6-15 18-26 7-5 15-13 21-20 8-11 11-37-1-49-16-19-30-38-40-57l-10-19-19 10 9 20c12 20 27 41 44 61 3 4 2 18-1 22-4 7-11 12-17 17-13 11-27 22-27 42 0 37 33 66 76 66 43 0 76-29 76-66 0-21-15-33-28-43-6-5-12-9-17-16-2-4-2-19 0-22 3-5 7-11 12-17 30-43 75-107 75-201 0-50-8-99-25-141z m-274 0c-91 0-165 74-165 163 0 90 74 163 165 163 90 0 164-73 164-163 0-89-74-163-164-163z m0 305c-79 0-143-64-143-142 0-78 64-142 143-142 79 0 143 64 143 142 0 78-64 142-143 142z m-54-96c-18 0-32 14-32 32 0 18 14 32 32 32 18 0 32-14 32-32 0-18-14-32-32-32z m0 43c-6 0-10-5-10-11 0-6 4-11 10-11 7 0 11 5 11 11 0 6-4 11-11 11z m68-27c-19 0-32 14-32 32 0 18 13 32 32 32 18 0 32-14 32-32 0-18-14-32-32-32z m0 43c-7 0-11-5-11-11 0-6 4-11 11-11 6 0 10 5 10 11 0 6-4 11-10 11z m-19-105c-16 0-29 14-29 30 0 16 13 30 29 30 16 0 30-14 30-30 0-16-14-30-30-30z m0 39c-4 0-8-5-8-9 0-4 4-8 8-8 5 0 9 4 9 8 0 4-4 9-9 9z"/>
<glyph unicode="&#99;" d="M256 327c-44 0-67 90-67 174l21 0c0-92 27-152 46-152 19 0 46 60 46 152l21 0c0-84-23-174-67-174z m161-327l-322 0 0 330 3 3c44 48 51 126 52 168l0 11 56 0 3-4c10-14 26-31 47-31 21 0 37 17 47 31l3 4 56 0 0-11c1-42 8-121 52-168l3-3z m-301 21l280 0 0 300c-41 47-54 116-56 170l-23 0c-17-23-39-36-61-36-23 0-44 12-61 36l-23 0c-2-54-14-123-56-170z"/>
<glyph unicode="&#100;" d="M404 95c-59 0-107 48-107 108 0 59 48 107 107 107 60 0 108-48 108-107 0-60-48-108-108-108z m0 194c-48 0-86-38-86-86 0-48 38-87 86-87 48 0 87 39 87 87 0 48-39 86-87 86z m-296-194c-60 0-108 48-108 108 0 59 48 107 108 107 59 0 107-48 107-107 0-60-48-108-107-108z m0 194c-48 0-87-38-87-86 0-48 39-87 87-87 48 0 86 39 86 87 0 48-38 86-86 86z m10-93l-21 7 46 176c-10 1-21 0-29-6-4-3-6-7-6-15l-22 1c1 13 7 24 15 31 21 16 54 9 58 9l11-2z m291-4l-140 0c-3 0-7 1-9 4l-120 153c-2 3-3 7-1 12 2 3 5 6 9 6l178 0c5 0 8-2 10-5l82-153c2-3 2-7 0-11-2-4-5-6-9-6z m-135 21l116 0-70 132-149 0z m63 192l20-8-78-191-19 9z m40 12l4-21-64-12-4 21z"/>
<glyph unicode="&#101;" d="M256-2l-73 25 8 21 60-22c31 33 76 86 123 156 91 137 126 242 115 276-3 7-6 9-8 9-34 12-145-84-250-240l-9-15c-10-15-19-29-27-44l-18 11c9 15 17 29 28 45l9 15c90 135 216 267 273 248 8-2 16-8 22-22 16-47-31-166-118-295-39-59-85-116-131-163z m-78 2l-157 0-2 9c-13 55-19 121-19 189 0 153 35 314 99 314 64 0 99-161 100-314 0-58-4-114-12-160-2-10-5-20-7-29z m-140 21l123 0c1 7 3 14 4 22 9 43 13 98 13 155-1 172-43 293-79 293-37 0-78-121-78-293 0-64 7-124 17-177z m433 449l18-12-293-423-17 12z"/>
<glyph unicode="&#102;" d="M512 178l-512 0 0 334 512 0z m-491 21l470 0 0 292-470 0z m340-21l-208 0 0 157 208 0z m-187 21l165 0 0 115-165 0z m175-131c-2 0-3 0-6 1l-185 101c-5 3-8 9-4 15 3 5 9 7 15 4l185-100c5-4 8-10 4-15-2-4-5-6-9-6z m0-62c-2 0-3 0-6 1l-185 101c-5 3-8 9-4 15 3 5 9 7 15 4l185-100c5-4 8-10 4-15-2-3-5-6-9-6z m-105-5c-2 0-3 0-5 1l-81 44c-5 3-8 9-4 15 3 5 9 7 15 4l81-44c5-3 7-9 4-15-2-3-5-5-10-5z m105 129c-2 0-3 0-6 1l-88 48c-5 3-8 10-4 15 3 5 9 8 15 4l88-48c5-3 8-9 4-15-2-3-5-5-9-5z m-186-62c-4 0-7 2-9 6-4 5-1 11 4 15l185 100c6 3 12 1 15-4 4-6 1-12-4-15l-185-101c-3-1-4-1-6-1z m0-62c-4 0-7 3-9 6-4 5-1 11 4 15l185 100c6 3 12 1 15-4 4-6 1-12-4-15l-185-101c-3-1-4-1-6-1z m103-6c-5 0-8 2-10 5-3 6-1 12 4 15l83 45c6 3 12 1 15-4 4-6 1-12-4-15l-83-45c-2-1-3-1-5-1z m-103 130c-4 0-7 2-9 5-4 6-1 12 4 15l87 48c6 4 12 1 15-4 3-5 1-12-4-15l-87-48c-3-1-4-1-6-1z"/>
<glyph unicode="&#103;" d="M256 0c-141 0-256 115-256 256 0 141 115 256 256 256 141 0 256-115 256-256 0-141-115-256-256-256z m0 491c-129 0-235-106-235-235 0-129 106-235 235-235 129 0 235 106 235 235 0 129-106 235-235 235z m-245-224l490 0 0-22-490 0z m234 234l22 0 0-490-22 0z m8-193c-68 0-132 33-192 99l16 14c56-62 117-94 180-91 104 2 180 90 180 91l16-14c-3-4-83-97-196-99-2 0-3 0-4 0z m183-218c-56 61-116 93-180 91-103-2-180-90-180-91l-16 13c3 5 83 98 196 100 69 1 135-32 196-100z"/>
<glyph unicode="&#104;" d="M462 0l-369 0c-2 0-3 0-6 1l-42 24c-6 3-8 9-4 14 3 6 9 8 14 5l41-23 366 0c6 0 11-4 11-10 0-7-5-11-11-11z m-279 43c-3 0-6 1-8 4-121 145-49 444-46 456 1 4 2 6 5 7 4 2 7 2 9 1 175-60 255-322 258-334 1-4-1-10-5-12l-207-121c-2-1-3-1-6-1z m-36 444c-12-55-54-295 39-420l193 113c-15 43-91 250-232 307z m4-299c-2 0-4 1-6 2l-31 23c-4 4-5 11-2 15 3 5 11 6 15 2l28-21 231 19-28 10c-5 2-8 8-6 14 2 5 9 8 14 6l72-27c5-2 8-6 7-11-1-6-4-9-10-10l-284-22c2 0 0 0 0 0z m32-188c-6 0-10 4-10 11l0 42c0 7 4 11 10 11 7 0 11-4 11-11l0-42c0-7-4-11-11-11z"/>
<glyph unicode="&#105;" d="M454 127l-401 0c-30 0-53 24-53 55l0 319c0 7 4 11 11 11l206 0c3 0 5-1 7-3 2-2 3-6 3-8l-5-186c130-9 249-48 279-96 12-18 13-42 4-62-11-18-29-30-51-30z m-433 364l0-309c0-19 14-34 32-34l401 0c13 0 25 8 31 19 7 13 7 28-2 40-23 37-132 80-273 86-5 0-11 6-11 11l7 187z m47-491c-32 0-58 27-58 59 0 32 26 58 58 58 32 0 59-26 59-58 0-32-27-59-59-59z m0 96c-20 0-37-17-37-37 0-21 17-38 37-38 21 0 38 17 38 38 0 20-17 37-38 37z m120-96c-32 0-59 27-59 59 0 32 27 58 59 58 32 0 58-26 58-58 0-32-26-59-58-59z m0 96c-21 0-38-17-38-37 0-21 17-38 38-38 20 0 37 17 37 38 0 20-17 37-37 37z m120-96c-32 0-58 27-58 59 0 32 26 58 58 58 32 0 59-26 59-58 0-32-27-59-59-59z m0 96c-20 0-37-17-37-37 0-21 17-38 37-38 21 0 38 17 38 38 0 20-17 37-38 37z m120-96c-32 0-59 27-59 59 0 32 27 58 59 58 32 0 58-26 58-58 0-32-26-59-58-59z m0 96c-21 0-38-17-38-37 0-21 17-38 38-38 20 0 37 17 37 38 0 20-17 37-37 37z m0-48l-360 0c-6 0-10 4-10 11 0 6 4 10 10 10l360 0c6 0 10-4 10-10 0-7-4-11-10-11z"/>
<glyph unicode="&#106;" d="M514 44l-227 0-31 62-31-62-227 0 67 424 381 0z m-214 21l189 0-61 382-344 0-61-382 189 0 44 90z m-233 341l378 0 0-21-378 0z m-24-179l-8 20c93 34 109 150 109 151l21-3c0-6-17-130-122-168z m426 0c-105 38-122 162-123 168l21 3c0-1 16-116 109-151z"/>
<glyph unicode="&#107;" d="M432-5c-102 0-294 12-427 96l-31 19 538 0 0-112-10-1c-1 0-27-2-70-2z m-381 94c162-82 390-74 440-72l0 72z m268 418l21 0 0-408-21 0z m11-349l-216 0 0 11c8 220 208 334 210 336l11-19c-2-2-186-106-198-307l193 0z"/>
<glyph unicode="&#108;" d="M256 121c-81 0-145 120-145 275 0 40 3 77 11 107l2 9 264 0 2-9c8-37 11-72 11-107 0-155-64-275-145-275z m-115 370c-6-28-9-60-9-95 0-140 56-254 124-254 68 0 124 114 124 254 0 31-3 62-9 95z m104-370l22 0 0-110-22 0z m-69-100l160 0 0-21-160 0z m-20 172c-188 129-155 272-154 277l2 9 115 0 0-21-98 0c-3-31-6-142 148-248z m200 0l-11 17c150 105 149 217 146 248l-98 0 0 21 115 0 2-9c1-5 34-148-154-277z m-100 97c-35 0-64 29-64 64 0 35 29 64 64 64 35 0 64-29 64-64 0-35-29-64-64-64z m0 107c-23 0-43-19-43-43 0-23 20-43 43-43 23 0 43 20 43 43 0 24-20 43-43 43z"/>
<glyph unicode="&#109;" d="M118 0c-34 0-66 5-96 17-3 1-5 3-6 6-44 114-2 261 103 367 78 77 176 122 271 122 35 0 67-5 96-17 3-2 5-4 6-6 43-114 2-261-104-367-77-77-175-122-270-122z m-83 36c26-9 54-14 83-14 89-1 182 42 255 115 98 99 139 234 101 339-26 9-54 15-84 15-88 0-182-43-255-116-98-99-137-234-100-339z m466 338c-34 0-67 14-91 39-29 26-37 62-39 85l22 1c1-20 8-49 32-71 21-22 48-32 76-32z m-380-363c-2 27-13 53-32 72-22 22-48 32-77 32l0 22c34 0 67-14 91-39 24-23 38-54 39-87z m208 335l15-15-163-165-15 15z m-47-4l57-59-15-15-57 59z m-32-34l57-57-15-15-57 57z m-33-32l57-57-15-15-57 57z m-33-32l57-58-15-15-57 58z"/>
<glyph unicode="&#110;" d="M443 314l-374 0 0 11c0 103 85 187 187 187 102 0 187-84 187-188z m-352 21l329 0c-4 86-77 156-164 156-87 0-160-70-165-156z m255-21l-180 0 0 11c0 105 40 187 90 187 50 0 90-82 90-188z m-158 21l136 0c-2 94-36 156-68 156-31 0-66-64-68-156z m237-3l16-15-130-141-15 14z m-338 0l132-142-15-15-133 142z m225-6l21-3-19-141-22 2z m-112 0l21-142-21-3-21 141z m-12-327c-9 62 36 87 61 92l4-22c-6-1-51-11-44-68z m68 140c-21 1-36 7-46 19-11 13-9 27-9 28l21-3-11 2 11-2c0-2 0-21 36-23z m2 0l-2 21c36 2 36 21 36 23l22 3c0-1 1-15-10-28-10-12-26-18-46-19z m55-137c-51 27-50 66-43 84l20-8c-1-3-12-34 32-57z m-56 170c-18 0-32 14-32 32 0 18 14 32 32 32 18 0 32-14 32-32 0-18-14-32-32-32z m0 42c-6 0-11-4-11-10 0-7 5-11 11-11 6 0 11 4 11 11 0 6-5 10-11 10z m36-145l-71 0 0 92 71 0z m-50 22l29 0 0 49-29 0z"/>
<glyph unicode="&#111;" d="M512 303l-512 0 0 60c0 46 37 83 83 83l346 0c46 0 83-37 83-83z m-491 21l470 0 0 39c0 34-28 62-62 62l-346 0c-34 0-62-28-62-62z m98 177l22 0 0-66-22 0z m1-184l20-7-102-303-20 7z m251 184l22 0 0-66-22 0z m21-184l102-303-20-7-102 303z"/>
<glyph unicode="&#112;" d="M108 0c-15 0-29 6-41 17l-50 50c-22 23-22 59 0 81l244 245c11 10 25 17 41 17 16 0 29-7 40-17l7-7 129 130 38-38-130-130 5-7c11-10 16-24 16-40 0-15-6-30-17-41l-243-243c-10-11-24-17-39-17z m194 388c-10 0-18-3-25-10l-245-245c-14-14-14-37 0-51l50-50c14-14 36-14 50 0l245 243c6 7 10 16 10 26 0 9-3 19-10 25l-21 22 130 130-8 8-130-130-22 22c-6 6-16 10-24 10z m139-388c-40 0-72 32-72 71 0 40 32 72 72 72 39 0 71-32 71-72 0-39-32-71-71-71z m0 122c-28 0-51-23-51-51 0-27 23-50 51-50 27 0 50 23 50 50 0 28-23 51-50 51z"/>
<glyph unicode="&#113;" d="M54 110c-17 0-29 5-39 14-20 20-19 59 5 110 23 47 62 100 110 148 79 79 164 130 219 130 17 0 30-5 39-14 47-47-24-168-115-259-79-79-164-129-219-129z m295 381c-48 0-130-50-204-124-47-47-84-97-106-142-19-40-22-72-9-85 5-6 14-9 24-9 48 0 131 50 204 124 101 100 142 200 115 228-5 6-12 8-24 8z m-182-262c-13 0-25 5-34 13-12 13-16 32-10 53 5 21 18 41 35 59 23 24 53 39 78 39 14 0 25-5 34-13 13-13 16-32 11-54-6-20-19-40-36-58-23-25-52-39-78-39z m69 142c-19 0-44-12-63-32-15-15-26-32-30-49-2-8-4-23 5-33 5-4 11-6 19-6 20 0 44 11 63 32 15 15 26 32 30 49 2 8 5 23-5 33-4 4-11 6-19 6z m-25-127c-3 0-5 1-7 3l-66 68c-5 4-5 10 0 15 4 4 10 4 15 0l66-68c4-4 4-10 0-15-2-2-5-3-8-3z m27-142c-3 0-5 1-8 4-4 4-4 10 0 15l161 161c5 4 11 4 15 0 5-5 5-11 0-15l-161-161c-2-3-4-4-7-4z m-63-102c-8 0-14 3-18 9l-23 22c-5 5-8 13-7 19 0 7 3 13 8 17l52 51c5 6 10 8 18 8l23 0c14 0 26-12 26-26l0-23c0-7-3-13-7-17 0-1-1-1-1-2l-52-53c-6-3-13-5-19-5z m29 106c-2 0-2 0-3-1l-53-53c-1-1-2-2-2-2 0-1 1-2 2-3l24-24c3-3 4-2 6 0l51 52c1 2 2 3 2 4l0 23c0 3-2 5-4 5l-23 0z m229 154l-23 0c-14 0-26 12-26 26l0 23c0 8 2 13 7 18l53 53c10 10 27 9 37-1l22-23c6-5 9-13 8-19 0-6-3-13-9-17l-51-51c-5-7-10-9-18-9z m29 107c-1 0-2-1-3-2l-53-52c-1-2-1-2-1-4l0-23c0-2 2-4 5-4l23 0c2 0 2 0 3 1l53 52c1 1 2 2 2 2 0 1-1 2-2 3l-24 24c-1 2-2 3-3 3z"/>
<glyph unicode="&#114;" d="M236 59c-10 0-18 1-27 4-14 4-26 12-36 20-9 7-16 12-26 16-6 2-13 3-22 3-4 0-9 0-14 0-5 0-10 0-15 0-7 0-18 0-29 5-23 9-40 31-53 66-27 72-14 160 35 230 48 68 120 109 193 109 21 0 42-3 63-10 40-12 58-20 100-55 29-24 53-52 70-81 3-7 3-14 0-19-4-6-9-8-14-8l-6 0c-25-2-46-3-70-15-16-8-44-27-49-62-3-16 3-29 10-44 6-14 11-29 11-46 0-22-8-44-24-63-26-31-63-50-97-50z m-111 64c13 0 22-2 31-6 11-5 20-11 30-18 9-7 19-14 29-17 7-2 14-3 21-3 27 0 58 17 79 43 12 16 20 34 20 50 0 13-5 25-11 37-7 16-15 34-10 58 7 42 41 66 60 76 27 13 53 15 78 18-15 24-36 49-61 69-39 33-56 39-93 51-19 6-38 10-56 10-66 0-131-38-175-100-46-65-57-144-32-212 11-29 24-47 41-53 5-2 13-3 21-3 4 0 9 0 14 0 4 0 8 0 14 0z m81 28c-25 0-43 15-51 40-6 16-2 33 7 49 12 19 33 34 55 36 2 0 4 0 6 0 15 0 28-5 37-15 19-17 26-40 17-62-9-26-41-48-71-48z m18 105c-1 0-3 0-4 0-14-2-30-13-39-27-4-7-9-19-5-32 5-16 16-24 31-24 20 0 45 16 52 35 6 14 1 28-12 39-7 7-14 9-23 9z m183-256c-24 0-51 2-83 6-43 7-78 30-98 64l18 11c22-37 58-49 83-53 50-7 86-8 117-5 10 2 18 4 22 7 29 17 26 55 19 92l-9 44c-1 4-2 7-2 10 0 2-1 3-1 5-3-3-4-5-6-6-16-16-33-24-53-24-33 0-59 9-80 26l14 17c18-14 39-21 67-21 15 0 27 5 38 17 1 2 7 9 8 13 3 6 9 9 16 8 6-1 12-5 14-13l0-1c1-6 2-10 3-16 1-3 2-6 3-10l10-45c5-29 16-89-29-114-7-6-17-9-32-10-12-1-25-2-39-2z m10 90c-12 0-22 1-34 2-20 2-42 4-62 8l4 22c21-5 41-7 60-9 35-3 72-3 104 15l10-18c-26-16-54-20-82-20z m-15-76c-1 46-2 98-1 148l21 0c-1-50 0-101 1-148z"/>
<glyph unicode="&#115;" d="M45 294l-9 9c-48 48-48 125 0 173 24 23 54 36 87 36 33 0 64-13 87-36l9-9z m78 197c-27 0-53-11-72-30-37-38-39-96-6-137l143 143c-18 15-41 24-65 24z m44-485c-21 49-43 100-66 149-22 50-44 99-66 149l19 9c23-51 44-100 67-150 22-49 43-99 66-148z m30 203l92-135-17-12-93 135z m65 56l115-115-15-15-115 115z m53 68l134-93-12-17-134 92z m182-8c-49 22-99 44-148 66-50 23-99 45-150 67l9 19c50-23 99-44 149-66 49-23 100-44 149-66z"/>
<glyph unicode="&#116;" d="M278-1c-7 0-15 2-21 7-16 13-19 36-7 52 17 24 23 44 17 64-11 37-57 63-66 67l-70-148c-5-13-19-22-33-22-4 0-9 0-16 3-8 4-16 11-19 20-3 9-3 20 1 28l86 184 59 130c10 17 30 25 47 17l43-19c2-1 3-2 4-2 2-1 4-2 5-3 1-2 3-3 5-5l4-3 0-2c0-1 1-2 1-3l0-1c1-4 2-8 2-12 3-26 14-49 21-51 5 0 14 3 28 16 14 13 35 10 47-3 12-12 12-35-2-48-26-23-49-34-72-34-9 0-18 3-25 6-13 4-24 13-33 24l-14-30c27-19 56-49 68-91 12-42 2-85-30-127-6-9-17-14-30-14z m-71 211c17-7 68-37 81-82 7-26 0-53-21-82-6-8-2-17 3-21 2-3 5-4 8-4 6 0 10 2 13 7 27 37 36 73 27 109-11 39-43 68-67 84l-9 3 39 83 9-19c10-17 19-28 32-32l1 0c4-2 10-3 17-3 17 0 37 9 57 28 5 5 5 12 1 17-5 6-13 6-17 2-19-18-38-26-50-21-26 10-34 68-34 70l0 1c0 2 0 4-2 7l0 1-2 3c-1 1-2 1-4 2 0 0-1 1-1 1l-43 19c-2 1-4 1-5 1-5 0-11-3-14-9l-57-128-85-184c-2-4-2-9-1-12 2-4 4-6 9-8l2-1c1 0 3 0 4 0 7 0 12 3 14 8l79 169 10-6c1-1 3-2 5-3 1 1 1 0 1 0z m101 185c-32 0-58 26-58 58 0 32 26 59 58 59 32 0 59-27 59-59 0-32-27-58-59-58z m0 96c-20 0-37-17-37-38 0-20 17-37 37-37 21 0 38 17 38 37 0 21-17 38-38 38z m-152-258c-1 0-31 6-45 34-12 23-10 53 7 90 16 34 37 54 60 58 33 5 61-24 62-25l-16-15c0 0-20 22-43 19-16-3-31-19-43-45-14-30-17-55-9-72 10-19 30-23 31-23z m103-82l17-13-85-114-17 13z m69 96l17-13-37-50-17 12z m103 138l17-12-48-65-17 12z"/>
<glyph unicode="&#117;" d="M256 0c-141 0-256 115-256 256 0 141 115 256 256 256 141 0 256-115 256-256 0-141-115-256-256-256z m0 491c-129 0-235-106-235-235 0-129 106-235 235-235 129 0 235 106 235 235 0 129-106 235-235 235z m123-458l-18 11c20 34 13 79-21 134-20 32-46 77-57 107-17 47-17 86 2 119 31 55 99 67 102 69l4-22c-1 0-61-12-88-57-15-27-16-61-1-102 11-27 35-71 55-102 40-63 46-115 22-157z m-333 108l-19 9c87 166 47 275 47 276l20 7c1-4 44-119-48-292z"/>
<glyph unicode="&#118;" d="M256 0c-68 0-124 55-124 124l0 132c0 68 56 124 124 124 68 0 124-56 124-124l0-132c0-69-56-124-124-124z m0 358c-57 0-102-45-102-102l0-132c0-57 45-103 102-103 57 0 102 46 102 103l0 132c0 57-45 102-102 102z m-78 154l156 0 0-21-156 0z m67-11l22 0 0-46-22 0z m11-118c-26 0-46 20-46 46 0 25 20 46 46 46 26 0 46-21 46-46 0-26-20-46-46-46z m0 70c-14 0-25-10-25-24 0-14 11-25 25-25 14 0 25 11 25 25 0 14-11 24-25 24z m86-401c-18 15-51 25-86 25-34 0-66-9-85-24l-13 17c22 17 59 28 98 28 41 0 78-11 99-29z m-127 22c-27 20-26 65-24 120 0 15 1 31 1 48 0 79 39 129 41 131l17-12c0 0-37-47-37-119 0-17 0-33-1-48-2-50-3-89 16-103z m82 0l-13 17c19 14 17 53 16 103 0 15-1 31-1 48 0 72-37 117-37 119l17 12c3-2 41-53 41-131 0-17 0-32 1-48 2-55 3-100-24-120z"/>
<glyph unicode="&#119;" d="M250 135c-43 0-78 36-78 78 0 43 35 78 78 78 42 0 77-35 77-78 0-42-35-78-77-78z m0 135c-31 0-57-26-57-57 0-31 26-56 57-56 31 0 56 25 56 56 0 31-25 57-56 57z m10-260l-21 0c-1 20-11 76-38 91l-38 21 172 0-36-21c-28-15-38-71-39-91z m-27 90c7-10 12-22 17-34 4 12 9 24 17 34z m-51 75c-82 15-141 67-133 116 3 16 13 30 29 42 32 21 84 29 137 18 84-16 142-67 134-116-2-14-11-27-25-38l-14 17c10 8 15 16 16 25 7 36-45 78-116 91-48 9-94 3-121-15-12-8-19-17-21-28-4-36 49-78 119-91z m260 331l20-9-114-263-20 8z"/>
<glyph unicode="&#120;" d="M352-4l-103 164c-9-11-20-20-31-28-23-15-49-23-77-23-48 0-92 24-119 66-42 68-23 157 43 199 22 15 49 24 77 24 48 0 92-25 118-66l177-281z m-102 203l108-173 49 32-164 263c-22 35-60 57-100 57-22 0-46-7-65-21-57-36-74-112-37-170 22-36 59-57 100-57 22 0 46 7 65 20 14 9 25 21 34 35z m182-150l-19 10 76 144-150 239c-16 24-39 41-67 47-27 5-55 0-79-15-6-5-11-8-15-13l-15 15c6 5 12 10 19 15 29 19 62 25 95 18 33-8 62-28 81-57l157-248z m-270 427l15-15-110-110-15 15z m200-58l17-14-97-120-17 13z m33-53l18-12-90-133-17 12z"/>
<glyph unicode="&#121;" d="M142 0c-32 0-52 16-62 48-6 23-80 294-80 294l-3 12 12 2c0 0 40 7 59 41l6 10 9-6c0 0 17-12 38-12 12 0 23 5 33 13l18 16 0-21c3-7 19-32 51-32 3 0 7 0 11 1l13 2-45-317c0-2-13-48-58-50 0-1-1-1-2-1z m-119 338c14-51 72-263 78-284 7-22 20-33 41-33l3 0c27 1 36 30 38 34l41 287c-32 0-54 21-65 36-12-8-24-11-37-11-17 0-31 5-41 10-17-24-43-35-58-39z m69-256l-14 16c52 45 124 8 127 5l-11-18c0 0-62 32-102-3z m214 28c-7 0-14 1-20 4-31 12-46 36-42 69 1 25 33 293 34 303l1 12 12-3c0 0 9-2 20-2 13 0 32 2 50 15l9 7 7-9c0 0 20-30 50-30 5 0 10 1 16 3l6 1 9-6 0-5c1-7 6-43 45-53l14-3-159-274c-2-2-21-29-52-29z m-7 363c-7-53-32-270-34-292-4-24 6-39 28-48 5-2 9-2 13-2 20 0 34 19 34 19l145 250c-26 12-41 35-47 55-3-1-7-1-10-1-30 0-51 20-62 32-19-11-40-13-53-13-6 0-11 0-14 0z m63-299c0 1-46 54-97 38l-7 21c66 20 119-43 121-45z"/>
<glyph unicode="&#122;" d="M196 124c-48 0-98 22-136 61-70 69-81 167-26 224 23 22 52 35 88 35 48 0 98-23 136-61 69-69 81-168 26-224-23-22-53-35-88-35z m-74 299c-29 0-55-9-73-28-46-47-34-135 26-194 35-36 79-56 121-56 29 0 55 10 73 29 46 47 34 134-26 194-35 35-79 55-121 55z m162-248l46-48-15-14-46 47z m123-175c-9 0-18 3-24 11l-68 69c-7 6-11 15-11 25 0 9 3 18 11 24 12 13 36 13 49 0l68-69c6-7 11-16 11-26 0-9-5-18-11-23-6-7-15-11-25-11z m-68 118c-3 0-6-1-9-4-3-2-5-6-5-9 0-4 1-7 5-10l68-69c5-6 14-6 19 0 3 2 4 5 4 8 0 4-1 8-4 11l-68 69c-3 2-7 4-10 4z m93 234c-21 0-42 9-57 23-30 32-30 83 0 114 15 14 36 23 57 23 21 0 42-9 57-23 30-32 30-84 0-114-15-14-36-23-57-23z m0 139c-16 0-30-7-42-17-22-23-22-60 0-84 11-10 26-17 41-17 16 0 31 7 42 17 22 23 22 60 0 84-11 10-26 17-41 17z m-27-127c-5 0-11 0-16 1l4 21c10-2 25-1 38 2 3 1 6 2 8 3 7 5 11 11 13 18 1 6-1 12-5 18-3 4-9 6-14 10-4 2-8 6-13 9-3 1-4 2-6 3-7 5-14 11-19 22-4 8-4 22 2 30l18-10c-1-2-1-8 0-11 4-7 8-11 14-15 2-1 3-2 5-4 3-2 7-4 11-7 6-4 14-8 19-15 9-10 13-24 10-37-4-12-11-23-22-30-4-3-9-4-15-5-11-2-22-3-32-3z"/>
<glyph unicode="&#65;" d="M327 0c-103 0-204 30-285 83-9 7-16 12-23 19-8 12-10 25-12 35-21 112 9 230 83 323 20 26 60 43 118 51 1 0 2 0 3 0l2 0c8 0 15 1 24 1 16 0 36-1 54-11 29-15 45-48 42-84 0-6-2-12-4-16l-2-1c-2-3-4-5-7-7-1-2-2-3-3-3l-2-1c-22-14-52-18-77-10-13 4-25 10-35 17-14 7-27 15-40 17 0-4 1-9 2-12 5-12 9-24 14-37 10-26 19-51 26-79 2-9 4-20 5-32 0-3 0-8 0-12 0-2 0-6 0-8 7 2 18 11 24 16 4 3 8 6 11 8 11 8 22 15 36 21 27 11 59 12 98 0 18-5 35-11 52-18 12-4 23-8 35-13 11-2 19-6 28-11 9-9 16-22 17-39 3-27 4-56 3-84-1-17-4-69-44-91-10-5-21-8-31-10l-2 0c-37-9-73-12-110-12z m-114 491c-1 0-2 0-3 0-65-10-93-29-104-44-70-89-99-201-78-307 1-9 2-17 7-25 4-5 11-9 18-15 78-51 175-79 274-79 36 0 71 4 104 11l2 0c9 2 17 4 26 9 20 10 30 34 33 73 1 27 0 55-3 81-2 12-5 20-10 25-4 3-12 6-20 8-13 5-25 9-37 14-16 7-33 13-50 17-33 10-61 10-83 0-12-5-21-12-32-19-3-2-6-4-10-7-14-12-27-22-39-22-6 0-11 2-15 8-5 6-4 15-4 24 0 3 0 7 0 9-1 10-3 22-6 30-5 25-14 51-24 75-4 13-10 26-14 39-3 9-6 22 0 34l3 5 9 0c21 0 39-10 56-20 11-6 21-12 31-15 7-2 13-3 21-3 13 0 27 3 38 10 1 2 2 3 3 4 1 1 2 2 3 3 1 3 2 4 2 6 2 23-5 51-30 64-11 6-25 8-45 8-9 0-15-1-23-1z"/>
<glyph unicode="&#66;" d="M445 374c-18 0-36 8-49 21-13 12-21 30-21 49 0 18 7 35 21 49 11 12 29 19 47 19 18 0 36-7 49-20 26-27 27-71 1-97-13-13-30-21-48-21z m-2 117c-13 0-25-6-33-14-9-9-14-20-14-33 0-13 5-25 14-34 9-10 21-14 34-14 13 0 24 5 33 14 18 18 18 48-1 67-8 8-21 14-33 14z m-384-239c-17 0-33 9-41 25l-14 30c-10 22 0 52 23 64l156 84c8 5 15 7 24 7 17 0 33-10 40-26l14-30c11-22 1-51-22-64l-157-84c-7-4-16-6-23-6z m149 189c-4 0-10-2-13-4l-158-85c-12-7-19-25-14-36l14-30c6-12 22-16 34-10l157 85c14 7 19 23 14 36l-14 30c-4 8-11 14-20 14z m118-441c-6 0-13 1-19 4l-30 14c-11 5-19 15-23 27-4 13-2 25 4 37l84 157c9 16 27 27 45 27 7 0 14-1 19-5l30-14c12-5 19-14 24-26 4-13 2-26-5-38l-84-156c-8-16-26-27-45-27z m61 244c-10 0-20-6-25-16l-85-157c-4-6-5-13-3-20 2-6 7-10 12-14l30-14c13-6 30 2 36 14l84 157c5 7 6 14 3 20-2 7-6 11-11 14l-30 14c-3 1-8 2-11 2z m24 260l8-19-173-80-9 19z m75-85l19-9-80-173-19 9z"/>
<glyph unicode="&#67;" d="M356 94l-303 0-2 1c-38 20-50 104-51 114l-1 13 128-3 2-1c46-22 78-23 97-1 25 26 19 82 19 82l-1 7 8 3c45 18 64 52 64 53l4 7 9-3c58-21 176-159 180-165l3-4 0-4c-10-64-140-95-155-98z m-297 21l295 0c36 9 124 36 136 76-33 39-116 129-160 152-10-12-29-35-63-50 1-18-1-64-26-91-26-28-66-30-120-6l-99 3c7-30 19-72 37-84z m211 220l-11 17c41 27 40 36 40 37-1 4-10 7-18 8l2 21c3 0 32-4 37-23 2-17-13-37-50-60z m-41-115l-193 0 60 78 147-21z m-150 21l133 0 5 19-112 14z m-20-110c-10 0-21 0-31 0l0 22c323-4 404 43 423 62 8 9 8 14 8 14l21 4c0-3 2-14-11-28-27-34-122-74-410-74z"/>
<glyph unicode="&#68;" d="M144 54c-31 0-54 24-54 55l0 294c0 31 23 55 54 55 31 0 54-24 54-55l0-293c0-30-24-56-54-56z m0 382c-18 0-33-15-33-33l0-294c0-18 15-33 33-33 18 0 33 16 33 34l0 293c0 18-15 33-33 33z m-133-169l89 0 0-22-89 0z m177 0l136 0 0-22-136 0z m-139 86l21 0 0-194-21 0z m319-298c-31 0-54 24-54 55l0 293c0 30 24 55 54 55 31 0 54-24 54-55l0-293c0-31-23-55-54-55z m0 381c-18 0-33-15-33-33l0-293c0-18 15-33 33-33 18 0 33 15 33 33l0 293c0 18-15 33-33 33z m44-169l89 0 0-22-89 0z m30 86l21 0 0-194-21 0z"/>
<glyph unicode="&#69;" d="M364 53l-217 0c-16 0-28 12-28 28l0 205-59-35-64 87 130 94c6 5 13 10 20 10l39 0 0-22-39 0c-1 0-6-4-7-5-1-1-2-2-5-3l-108-78 40-56 75 44 0-241c0-3 3-6 6-6l217 0c3 0 6 3 6 6l0 242 77-45 40 56-112 80c-2 2-9 6-11 6l-38 0 0 22 38 0c9 0 21-9 25-12l128-92-64-87-62 36 0-206c0-16-11-28-27-28z m-143 276c-1 0-1 0-2 0-4 1-7 3-8 6l-36 92c-1 3-1 7 1 9l12 17c2 4 4 6 8 6 3 0 7-1 9-5l60-71c3-4 3-11 0-14l-36-37c-3-2-5-3-8-3z m-25 101l28-71 17 19z m95-107c-3 0-6 1-8 4l-36 43c-3 4-3 10 0 14l60 71c2 3 6 4 9 4 3 0 6-2 8-5l12-17c2-3 2-6 1-9l-36-97c-1-4-4-7-9-7 0-1 0-1-1-1z m-21 54l18-22 28 75-1 1z m-72 82l116 0 0-22-116 0z"/>
<glyph unicode="&#70;" d="M256 17l-7 8c-32 30-63 57-90 82-93 80-159 138-159 238 0 81 65 146 146 146 43 0 82-18 110-49 28 31 67 49 110 49 81 0 146-65 146-146 0-85-64-144-154-229-28-26-60-57-95-91z m-110 452c-69 0-125-55-125-124 0-90 64-146 152-223 25-23 53-47 83-75 31 32 62 60 89 85 87 83 146 138 146 213 0 69-56 124-125 124-41 0-77-18-101-51l-9-12-9 12c-24 33-60 51-101 51z m115-352c-5 0-8 4-10 8l-45 170-12-70c-1-5-5-8-11-8l-113 0 0 21 105 0 19 110c1 5 5 8 10 8 5 0 9-3 10-7l44-168 36 246c1 5 6 8 10 9 5 0 10-3 11-7l49-189 137 0 0-21-145 0c-5 0-9 3-10 7l-39 145-36-244c0-5-4-10-10-10z"/>
<glyph unicode="&#71;" d="M337 0l-162 0c-18 0-32 14-32 32l0 340c0 18 14 32 32 32l163 0c18 0 32-14 32-32l0-340c0-18-15-32-33-32z m-162 383c-6 0-11-4-11-11l0-340c0-6 5-11 11-11l162 0c6 0 12 5 12 11l0 340c0 7-4 11-11 11z m156 0l-157 0 0 75 157 0z m-136 21l114 0 0 32-114 0z m138 32l-160 0 80 80z m-109 22l58 0-29 28z m100-49l-7 20c6 2 24 13 30 25 2 6 2 11-1 17-5 9-10 14-17 16-19 6-43-7-51-12l-12 16c1 1 37 24 68 16 14-5 24-13 31-28 5-12 5-24 1-34-10-24-39-35-42-36z"/>
<glyph unicode="&#72;" d="M256 269c-50 0-91 40-91 90 0 51 41 91 91 91 50 0 91-40 91-91 0-50-41-90-91-90z m0 160c-38 0-69-31-69-70 0-38 31-69 69-69 38 0 69 31 69 69 0 39-31 70-69 70z m-114-429c-4 0-9 3-10 6l-26 69-57-18c-4-2-8 0-12 3-3 3-3 8 0 13l122 183c3 5 10 6 15 3 5-3 6-9 3-15l-106-158 38 12c5 2 12-1 13-6l19-50 65 187c2 6 7 9 14 7 5-2 8-9 6-14l-75-216c-1-3-5-6-9-6z m228 0c-4 0-8 3-9 7l-75 216c-2 5 1 12 6 14 6 2 12-1 14-7l65-187 19 50c3 5 8 8 13 6l38-12-105 158c-3 6-2 12 3 15 6 3 12 2 15-3l122-183c2-5 2-9 0-13-2-4-8-6-12-3l-57 18-26-69c-2-4-7-7-11-7z m-77 208c-1 0-2 0-3 0l-34 11-34-10c-4-1-8 0-11 3l-25 27-36 8c-4 2-6 5-7 8l-9 35-25 25c-3 3-4 6-3 10l9 36-10 34c-2 3 0 7 3 10l25 26 9 35c1 4 4 7 7 8l36 8 25 26c3 3 7 4 11 3l35-10 34 11c3 1 8 0 11-3l25-26 36-8c4-1 6-5 7-8l9-35 25-26c3-3 4-6 3-10l-9-34 9-36c1-4 0-7-3-10l-25-25-9-35c-1-4-4-6-7-7l-36-9-25-27c-2-4-4-5-8-5z m-132 58l32-9c2 0 3-1 5-3l24-25 31 9c2 0 4 1 5 0l31-9 24 25c1 1 3 2 5 3l32 9 8 32c0 2 1 3 4 5l23 22-8 32c0 2 0 5 0 6l8 31-23 23c-1 1-3 3-4 5l-8 32-32 9c-2 0-3 1-5 3l-24 24-30-10c-2 0-4 0-6 0l-31 9-24-24c-1-1-3-2-5-3l-32-9-8-32c0-2-2-3-4-5l-22-21 8-31c2-2 2-5 0-6l-8-32 23-22c1-1 3-3 4-5z"/>
<glyph unicode="&#73;" d="M285 169l-173 0c-63 0-112 49-112 112 0 61 50 112 112 112l173 0c62 0 112-51 112-112 0-62-50-112-112-112z m-173 202c-50 0-91-40-91-90 0-52 40-91 91-91l173 0c50 0 90 40 90 91 0 50-40 90-90 90z m208-371c-74 0-133 58-133 128l0 3 21 0 0-3c0-59 50-107 112-107 62 0 112 48 112 107l0 373 21 0 0-373c0-70-59-128-133-128z m-180 146l117 0 0-21-117 0z m0 90l117 0 0-22-117 0z m244 55l117 0 0-21-117 0z"/>
<glyph unicode="&#74;" d="M134 507l22 0 0-441-22 0z m0-260l0 253 257-126z m22 219l0-184 186 92z m100-471c-89 0-256 12-256 62 0 49 167 61 256 61 89 0 256-12 256-61 0-50-167-62-256-62z m0 102c-155 0-235-29-235-40 0-12 80-41 235-41 155 0 235 29 235 41 0 11-80 40-235 40z"/>
<glyph unicode="&#75;" d="M512 87l-513 0 20 170-3 255 224 0 0-142c0-97 85-120 169-130 78-10 102-97 103-142z m-490 22l468 0c-4 29-17 102-84 110-87 10-187 36-187 151l0 121-182 0 4-236z m362-109l-85 0 0 21 85 0c53 0 98 29 106 66l-468 0c8-37 53-66 106-66l53 0 0-21-53 0c-70 0-128 44-128 98l0 11 512 0 0-11c0-54-58-98-128-98z m-220 441l65 0 0-22-65 0z m64-82l3-21-65-11-4 21z m23-61l10-18-59-35-11 18z m40-35l17-13-44-57-17 13z m44-22l22-2-6-57-21 2z"/>
<glyph unicode="&#76;" d="M133-1c-6 0-11 3-16 7l-111 112c-4 5-6 9-6 14 0 6 2 11 5 15l1 1 57 43c7 6 21 5 28-3l96-96c8-7 10-17 5-27l-1-2-43-57c-3-4-8-7-15-7z m-112 134l112-112 40 53-1 1-97 98z m415 185c-6 0-11 3-16 7l-96 96c-7 7-9 16-4 26l1 2 43 57c7 9 22 9 30 0l111-111c4-5 6-9 6-14 0-6-2-11-5-15l-1-1-57-43c-3-2-6-4-12-4z m-97 119l97-97 53 40-110 111z m-16 1l15-15-250-250-15 15z m50-50l15-15-250-250-15 15z m50-50l15-15-250-250-15 15z"/>
<glyph unicode="&#77;" d="M421 87c-41 0-82 35-107 90l-117 0c-25-54-67-90-107-90-5 0-10 0-14 2-21 4-38 17-51 37-25 37-32 94-20 152 18 86 71 148 126 148 4 0 10 0 14-1 16-4 31-13 44-28l132 0c12 15 27 24 44 28 4 1 9 1 14 1 54 0 108-63 127-148 11-58 5-115-20-152-13-20-31-33-52-37-3-2-8-2-13-2z m-238 111l143 0 4-6c21-50 57-83 90-83 3 0 7 0 11 1 15 3 28 13 38 28 22 32 28 84 16 136-15 73-62 130-105 130-3 0-7 0-10-1-14-3-24-10-34-23l-3-5-154 0-3 5c-7 9-18 20-34 23-47 10-99-50-115-129-11-52-6-104 16-136 9-15 22-25 37-28 35-8 78 28 101 82z m-64 15c-32 0-57 26-57 58 0 32 25 58 57 58 32 0 58-26 58-58 0-32-26-58-58-58z m0 94c-20 0-36-16-36-36 0-20 16-36 36-36 21 0 37 16 37 36 0 20-16 36-37 36z m236 32l30 0 0-21-30 0z m0-90l30 0 0-22-30 0z m-45 44l31 0 0-21-31 0z m89 0l31 0 0-21-31 0z"/>
<glyph unicode="&#78;" d="M367 0l-224 0 3 98c-7 4-19 12-27 25l-46-65-77 55 37 69c-6 14-20 53-5 91 11 29 37 50 77 63 3 1 14 5 32 5 23 0 56-8 86-47 3-2 7-5 10-5 0 0 2 3 2 13-14 8-49 35-53 70l-26 1 0 10c-2 43 16 125 97 128l6 0c81-4 100-85 98-127l0-10-27-1c-4-36-39-62-53-70 0-10 2-13 2-13 3 0 8 3 10 5 30 39 63 47 85 47 17 0 30-4 32-5 40-13 67-34 77-63 15-37 0-77-6-91l36-70-76-55-47 65c-7-14-19-22-26-26z m-202 21l180 0-4 91 8 2c1 0 23 9 25 33l3 30 64-91 45 33-33 64 4 6c0 0 22 40 7 78-10 22-31 39-64 50l-1 0c0 0-10 4-25 4-18 0-44-6-69-39l-1-1c-2-3-14-12-26-12-5 0-10 2-15 6-4 4-6 11-7 19-1-9-4-16-9-20-4-4-8-6-14-6-12 0-24 9-26 11l-1 2c-25 32-51 39-69 39-15 0-25-4-25-4-34-11-55-28-65-50-15-37 6-77 7-78l4-6-33-63 44-32 65 92 1-32c2-25 26-33 26-33l8-2z m12 374l29-1-1-12c-4-34 46-64 47-64l4-2 0 1 5 3c0 0 52 28 47 64l-1 11 29 1c-1 25-12 93-77 95l-6 0c-65-4-75-71-76-96z m67-298l-59 0 0 65 45 0 0 23-41 0 0 21 63 0 0-65-46 0 0-23 38 0z m72 0l-60 0 0 65 46 0 0 23-42 0 0 21 63 0 0-65-46 0 0-23 39 0z"/>
<glyph unicode="&#79;" d="M379 127c-42 0-74 44-92 69-4 6-8 11-10 13-8 9-15 10-18 10l-2-1-3 1c-3 0-11-1-18-10-2-2-6-7-10-13-18-25-50-69-92-69-7 0-16 1-23 4-58 24-111 45-111 83l0 100c0 1 13 71 96 71l320 0c84 0 96-71 96-71l0-100c0-38-53-59-110-82-7-3-16-5-23-5z m-120 113c7 0 20-2 33-16 3-3 7-9 12-15 16-22 44-60 75-60 5 0 10 1 15 4 45 18 97 39 97 62l0 96c-1 7-13 54-75 54l-320 0c-61 0-74-46-75-54l0-96c0-23 52-44 97-62 6-3 11-4 15-4 31 0 59 38 75 60 4 6 9 12 12 15 16 17 31 17 36 16 1 0 2 0 3 0z m-111 82l14-17-66-57-14 16z m54-22l14-16-67-57-14 17z m180 21l14-16-67-58-14 16z m54-21l13-16-66-57-14 17z"/>
<glyph unicode="&#80;" d="M81 28c-24 0-44 19-44 43 0 25 20 44 44 44 25 0 44-19 44-44 0-24-19-43-44-43z m0 66c-13 0-22-10-22-23 0-12 9-22 22-22 13 0 22 10 22 22 0 13-9 23-22 23z m289-66c-24 0-44 19-44 43 0 25 20 44 44 44 25 0 44-19 44-44 0-24-19-43-44-43z m0 66c-13 0-22-10-22-23 0-12 9-22 22-22 13 0 23 10 23 22 0 13-10 23-23 23z m-319-49c-1 0-3 0-4 1l-26 11c-4 2-6 5-6 9 0 3-10 64-15 104 0 3 0 6 2 8 2 2 5 3 9 3l90 0c7 0 11-4 11-10l0-31c27 13 83 36 131 38 3 0 7-1 9-4 2-3 3-7 2-10l-14-48 129 0c6 0 11-4 11-10 0-7-5-11-11-11l-142 0c-3 0-6 1-8 4-2 2-4 7-2 10l12 47c-57-8-122-42-123-43-4-2-8-1-11 0-3 2-5 5-5 10l0 37-67 0c8-54 11-77 13-86l21-9c5-2 8-8 5-14-2-4-7-6-11-6z m349-1c-5 0-10 4-11 9-1 6 4 11 10 12l67 8c-35 13-79 17-80 17-6 0-11 5-9 11 0 6 5 11 11 10 3 0 80-8 120-37 3-4 5-8 4-12-1-4-5-8-10-8l-101-10c0 0-1 0-1 0z m-59 1l-231 0c-7 0-11 4-11 10 0 7 4 11 11 11l231 0c7 0 11-4 11-11 0-6-4-10-11-10z m-55 54c-7 0-11 4-11 11l0 28c0 6 4 10 11 10 6 0 11-4 11-10l0-28c0-7-5-11-11-11z m141 159c-2 0-5 1-6 2l-149 92c-2 1-4 4-4 6 0 3 0 6 1 9l55 90c3 5 10 6 15 3l148-93c6-3 7-10 4-15l-56-90c-1-2-4-4-6-4-1 0-2 0-2 0z m-135 107l130-81 45 71-130 81z m-80-121c-2 0-4 0-5 2-5 4-6 10-3 15l135 218c3 5 10 6 15 3 5-3 7-9 3-15l-135-217c-2-4-7-6-10-6z m-127 13c-1 0-2 0-2 0-3 1-5 2-6 4l-57 91c-3 5-1 12 3 15l149 93c2 1 5 2 8 1 3-1 6-2 7-4l55-90c3-5 1-12-3-15l-148-93c-1-1-4-2-6-2z m-40 97l45-71 130 81-45 71z m255-110c-3 0-8 2-10 6l-135 218c-4 6-1 12 3 15 5 3 12 1 15-3l135-219c3-5 1-11-3-15-1-2-3-2-5-2z"/>
<glyph unicode="&#81;" d="M191 240c-14 0-27 5-36 16l-145 142c-6 4-9 12-10 19 0 9 2 16 6 22l44 61c7 8 15 12 24 12 6 0 12-2 17-7l146-142c23-24 25-61 6-88l-9-13c-11-13-27-22-43-22z m-117 251c-3 0-5-1-6-4l-45-61c-2-3-2-5-2-7 0-2 1-4 2-5l146-142c6-6 12-10 21-10 9 0 19 6 25 14l10 13c13 18 11 45-4 60l-145 141c-1 1-1 1-2 1z m163-209l271-264-15-15-271 264z m84-42c-17 0-32 9-43 22l-9 13c-19 27-17 65 6 88l146 142c6 5 12 8 20 8 8 0 16-4 21-12l45-60c9-13 8-30-4-42l-146-143c-9-11-22-16-36-16z m120 252c-2 0-3-1-4-2l-147-142c-15-15-17-42-4-60l9-13c12-16 35-18 47-4l145 142c4 4 5 9 2 14l-45 62c-1 2-2 3-3 3z m-166-210l15-15-271-264-15 15z"/>
<glyph unicode="&#82;" d="M370 84c-40 0-73 33-73 74 0 40 33 73 73 73 41 0 74-33 74-73 0-41-33-74-74-74z m0 126c-29 0-52-23-52-52 0-29 23-52 52-52 29 0 52 23 52 52 0 29-23 52-52 52z m-302 279l22 0 0-478-22 0z m94 0l21 0 0-478-21 0z m94 0l21 0 0-478-21 0z m-177 23l188 0 0-21-188 0z"/>
<glyph unicode="&#83;" d="M465 31l-460 0-2 8c0 4-14 77 23 121 29 36 83 42 157 15l195-68 16 39 83-20z m-442 21l423 0 6 58-47 12-16-42-213 75c-64 22-111 20-134-9-24-28-21-75-19-94z m354-31l88 0 0-21-88 0z m-366 0l87 0 0-21-87 0z m419 108l-19 11c1 2 87 163-11 253l14 16c111-102 19-272 16-280z m-53 260c-8 0-13 4-16 10-10 19 22 70 51 109l17-13c-26-34-46-70-49-84 23 3 83 31 116 50l11-19c-10-6-97-53-130-53z m-220-227c-8 2-10 3-46 194l21 5c13-67 34-174 38-183l-10-5z m30 178c-92 0-109 13-112 27-5 17 16 29 20 31l11-19-6 9 6-9c-4-2-8-6-9-8 4-3 24-12 104-10l0-22c-5 1-9 1-14 1z"/>
<glyph unicode="&#84;" d="M11 0c-7 0-11 4-11 11l0 490c0 7 4 11 11 11 6 0 10-4 10-11l0-490c0-7-4-11-10-11z m490 0c-6 0-10 4-10 11l0 490c0 7 4 11 10 11 7 0 11-4 11-11l0-490c0-7-4-11-11-11z m-245 266c-83 0-166 8-247 24-6 1-9 5-9 11l0 200c0 4 1 7 4 9 2 2 6 2 9 2 160-33 326-33 486 0 3 1 7 0 9-2 3-2 4-5 4-9l0-200c0-6-3-10-9-11-81-16-164-24-247-24z m-235 43c155-30 315-30 470 0l0 180c-155-30-315-30-470 0z m69 136c17-4 35-8 52-10 0-5 0-10 0-16-11 1-23 3-33 6 0-7 0-13 0-21 10-2 20-3 31-5 0-5 0-11 0-16-11 1-21 3-31 5 0-11 0-23 0-35-7 1-13 2-19 4 0 30 0 59 0 88z m86-14c0-29 0-58 0-86-6 1-13 1-19 2 0 28 0 57 0 86 6-1 13-1 19-2z m17-88c0 29 0 58 0 87 8-1 15-1 22-1 7-11 12-22 19-32 5-10 10-20 13-30-1 12-2 23-2 36 0 9 0 17 0 26 7 0 12 0 18 0 0-29 0-58 0-87-6 0-13 0-20 0-6 11-13 23-18 35-5 9-11 21-15 30 0-11 1-23 1-37 0-8 0-17 0-25-5-3-12-3-18-2z m90 19c5-3 14-6 21-5 9 1 14 5 14 11 0 5-4 9-15 11-14 4-24 11-24 24 0 15 13 27 34 28 9 1 17-1 22-2-1-6-3-11-4-16-4 1-10 3-18 2-9-1-13-4-13-10 0-5 5-7 16-10 15-5 22-12 22-24 0-15-11-28-35-30-10-1-19 2-25 5 3 5 4 10 5 16z m88 73c0-10 0-22 0-33 11 1 22 3 32 5 0 11 0 23 0 34 7 1 13 2 19 4 0-29 0-58 0-87-6-1-12-2-19-4 0 12 0 25 0 36-10-2-21-3-32-5 0-12 0-24 0-36-6-1-13-2-19-2 0 28 0 57 0 86 6 1 13 1 19 2z"/>
<glyph unicode="&#85;" d="M77 336c-33 0-61 28-61 61 0 33 28 61 61 61 33 0 61-28 61-61 0-33-28-61-61-61z m0 100c-22 0-40-18-40-39 0-22 18-40 40-40 21 0 39 18 39 40 0 21-18 39-39 39z m330-381l-3 0c-1 0-1 0-2 0-105 20-150 88-168 134-40-16-49-28-52-31 6-9 41-29 81-39 9-2 15-7 20-14 4-8 5-16 3-24-4-14-16-22-29-22-3 0-5 0-8 1-46 13-124 41-127 95-3 28 18 54 59 76l-18 21c-6-15-15-27-28-35-13-10-30-15-51-15-30 0-57 10-66 16-7 3-13 9-16 17-2 7-2 16 1 23 4 11 16 17 29 17 4 0 9-1 13-2 8-3 25-10 39-10 8 0 13 2 16 5 7 5 10 19 9 39l0 7c0 2 0 3 1 5l23 46c0 1 1 2 2 3l2 1c14 18 55 62 99 62 5 0 10-1 16-2 33-9 54-41 63-95 3-17-8-32-25-35-2 0-4-1-6-1-15 0-27 10-30 24-5 35-15 46-18 46 0 0 0 0-1 0-7 0-18-6-34-20l70-76c1-1 2-3 2-4l6-23c0 0 0-1 0-1 0 0 0-1 0-1 4-25 24-109 132-128 7-1 15-5 19-12 4-6 6-13 5-21 0-16-12-27-28-27z m-2 22l2 0c4 0 9 2 9 7 0 0 0 1 0 1 0 1 0 4-1 6-1 2-3 3-5 3-123 21-145 117-150 146l-5 19-76 81c-4 5-4 11 0 15 13 13 36 33 57 33 2 0 4 0 6-1 20-6 30-37 34-63 1-5 6-8 11-7 4 1 8 4 7 10-5 31-18 71-48 78-3 1-7 1-10 1-37 0-73-41-83-54 0 0-2-1-2-1l-21-42 0-3c2-29-4-48-17-57-7-6-17-8-29-8-19 0-39 6-48 11-4 2-10 0-13-5-1-2-1-5 0-7 2-2 3-4 5-5 1 0 1-1 2-1 4-3 28-13 54-13 15 0 29 3 39 10 12 9 20 23 24 42 1 4 4 8 8 9 4 1 8 0 10-4l41-44c2-3 3-7 2-10-1-3-3-6-6-7-42-20-62-41-60-62 2-29 44-58 112-76 1 0 2 0 3 0 4 0 8 3 9 7 1 6-1 10-7 12-24 7-95 31-97 59 0 13 13 31 72 54 2 2 6 3 9 2 3-1 7-3 8-6 12-41 51-112 154-130z m-57 64c-18 0-34 3-46 12-5 3-7 9-2 14 3 6 9 7 15 3 24-17 74-7 113 9-7 2-12 3-12 3-16 7-52 19-65 17-1 0-1 0-2 0-6 0-11 5-12 10-1 5 3 11 10 12 1 0 2 0 3 0 52 4 93 20 121 38-11 1-24 3-37 6-24 4-53 8-83 5-4 0-8 2-10 5-2 3-2 8 0 12 10 15 20 24 32 31 16 8 32 11 47 12 3 0 7 1 10 1 15 2 32 7 45 18-28-6-57-4-71-2-8 1-20 4-26 7 0 0-1 0-1 1-4 2-7 6-10 8-3 2-5 4-9 6-11 6-49 14-65 6-5-2-11 0-14 6-2 5 0 12 6 14 25 11 69 1 85-8 4-3 8-5 11-8 2-2 5-5 7-7 5-2 12-3 21-5 18-2 64-4 91 13 5 2 9 2 13-1 3-4 4-8 3-12-11-30-43-52-82-58-3 0-6-1-9-1-14-1-27-2-39-9-3-2-6-5-9-8 23 0 44-3 65-6 25-4 47-8 65-3 4 1 9-1 11-6 3-4 3-9-2-13-10-10-43-39-105-55 8-3 16-5 19-7 13-6 34-9 40-6 0 0 1 0 1 1 6 3 12 1 15-3 4-5 3-12-3-15-1 0-1-1-2-1-33-13-88-36-133-36z"/>
<glyph unicode="&#86;" d="M256 0c-141 0-256 115-256 256 0 141 115 256 256 256 141 0 256-115 256-256 0-141-115-256-256-256z m0 491c-129 0-235-106-235-235 0-129 106-235 235-235 129 0 235 106 235 235 0 129-106 235-235 235z m-43-421c-79 0-143 64-143 143 0 79 64 143 143 143 79 0 143-64 143-143 0-79-64-143-143-143z m0 265c-67 0-121-54-121-122 0-67 54-121 121-121 68 0 122 54 122 121 0 68-54 122-122 122z m0-127c-25 0-47 21-47 47 0 26 22 47 47 47 26 0 47-21 47-47 0-26-21-47-47-47z m0 73c-14 0-25-12-25-26 0-14 11-26 25-26 14 0 26 12 26 26 0 14-12 26-26 26z m0-157c-27 0-51 23-51 51 0 28 24 51 51 51 28 0 52-23 52-51 0-28-24-51-52-51z m0 81c-16 0-30-14-30-30 0-16 14-30 30-30 16 0 30 14 30 30 0 16-14 30-30 30z"/>
<glyph unicode="&#87;" d="M465 140c-18 0-33 15-33 33 0 18 15 33 33 33 18 0 33-15 33-33 0-18-15-33-33-33z m0 45c-6 0-12-6-12-12 0-7 6-12 12-12 6 0 12 5 12 12 0 6-6 12-12 12z m-147 196c-36 0-65 29-65 65 0 36 29 65 65 65 36 0 65-29 65-65 0-36-29-65-65-65z m0 109c-25 0-44-20-44-44 0-25 19-44 44-44 24 0 44 19 44 44 0 24-20 44-44 44z m130-490l-2 0c-23 0-42 17-43 39-3 73-66 122-108 147-34-16-122-68-154-152-8-17-23-27-40-27-5 0-8 2-12 3l-3 0c-10 3-19 11-24 21-5 11-5 22-1 33 35 91 109 149 167 183l3 57c-17-3-30-9-40-13l8-13c4-4 3-11-2-15l-19-13c-2-3-5-3-8-3-4 0-6 3-8 5l-13 19c-16-3-33 4-42 18-9 15-9 32 0 46l-17 24c-29-2-59 16-74 46-11 21-14 44-7 64 5 16 14 29 28 36 32 16 74-4 94-41 15-30 14-63-2-84l14-21c36 18 72 27 108 30 7 1 15 1 21 1 63 0 154-23 228-134 7-9 9-20 7-31-2-12-10-21-20-28-5-3-12-7-22-7-15 0-28 6-35 18-17 28-37 49-61 66l-5-32c47-32 119-98 125-198 1-11-4-22-11-30-8-9-18-13-30-14z m-151 209c2 0 3 0 5-1 44-26 118-82 123-166 1-11 9-20 21-20l2 0c5 0 11 4 14 8 4 4 5 9 5 15-5 90-68 150-121 185-4 3-6 7-5 11l9 56c1 3 3 6 6 8 3 2 8 1 10 0 32-19 59-46 81-81 4-5 10-9 18-9 3 0 8 2 12 5 4 3 8 8 9 14 1 5 0 10-3 15-55 83-126 124-210 124-6 0-14 0-20-1-35-3-72-14-108-32-5-2-11-1-14 3l-23 36c-3 4-2 9 1 14 15 13 17 41 4 65-12 21-32 35-51 35-5 0-11-1-15-3-8-8-14-15-17-26-4-15-2-33 6-48 13-25 38-38 58-34 4 1 8-1 11-4l24-37c3-4 2-9-1-12-6-8-7-19-3-27 5-8 16-12 24-8 5 3 11 1 14-4l11-16 2 1-11 15c-2 2-2 5-1 9 1 3 3 5 6 6 12 6 38 17 71 22 3 0 6 0 9-3 2-2 3-5 3-8l-4-76c0-3-3-6-6-9-56-32-130-88-163-174-2-6-2-11 1-16 2-6 6-9 11-11l1 0c3-1 4-1 7-1 9 0 16 5 21 14 37 97 139 151 170 165 2 1 4 1 6 1z"/>
<glyph unicode="&#88;" d="M147 0c-3 0-5 1-7 3l-137 138c-4 4-4 10 0 15l235 240c4 4 11 4 15 0 4-5 4-11 0-15l-227-233 121-122 108 92c4 5 11 4 15-1 4-4 3-10-1-15l-115-99c-1-2-5-3-7-3z m306 239c-3 0-6 1-8 4-4 4-3 12 1 15 22 19 44 45 44 103 0 64-70 119-132 129-23 3-81 5-101-60-2-8-4-16-4-24 1-32 24-63 55-71 21-6 43-4 66-2 10 1 21 2 31 2 6 0 11-4 11-11 0-6-4-10-11-10-9 0-19-1-30-3-24-2-50-4-74 3-40 11-70 51-71 91 0 10 3 21 5 30 17 57 64 84 124 75 73-11 150-74 150-151 0-53-16-89-52-119 1 0-2-1-4-1z m-169-148c-13 0-28 1-38 11-6 7-7 15-8 23-4 22-8 48 0 73 6 22 18 41 29 57 10 16 22 32 38 43 19 15 44 20 61 22 12 1 22 1 32-1 30-6 54-31 63-63 6-28 1-58-15-85-35-58-107-79-162-80z m96 210c-3 0-8 0-11-1-20-2-38-9-50-18-14-10-24-24-34-39-10-15-22-32-27-50-6-21-3-45 0-65 1-4 2-10 3-12 5-5 14-5 22-5 50 1 114 19 145 69 14 23 18 48 13 70-6 25-25 44-46 49-5 1-10 2-15 2z m-184-86c-1 0-1 0-2 0-5 2-9 7-8 12l6 41c1 5 6 9 12 8 5-1 9-6 8-11l-5-41c-1-4-5-9-11-9z m-32-33c-1 0-1 0-2 0-5 1-9 7-8 12l6 42c1 5 6 9 12 8 5-1 9-6 8-11l-6-42c0-4-4-9-10-9z m-32-33c-1 0-1 0-2 0-5 1-9 7-8 12l6 42c1 5 6 9 12 8 5-1 9-6 8-12l-6-41c0-4-4-9-10-9z m-32-32c-1 0-1 0-2 0-5 1-9 7-8 12l6 42c1 5 6 9 12 8 5-1 9-6 8-12l-6-40c0-5-4-10-10-10z m-32-33c-1 0-1 0-2 0-5 1-9 7-8 12l6 42c1 5 6 9 12 8 5-1 9-6 8-12l-6-40c0-5-4-10-10-10z m158 104c0 0-1 0 0 0l-36 3c-5 1-11 5-10 12 1 5 6 10 12 9l35-3c6-1 11-5 10-12-1-5-6-9-11-9z m-30-32l-36 2c-6 0-11 5-10 12 1 6 6 10 12 9l35-2c7 0 11-5 10-12 0-5-5-9-11-9z m-32-32c0 0-1 0 0 0l-36 3c-5 1-11 5-10 12 1 5 6 10 12 9l35-3c6-1 11-5 10-12-1-5-5-9-11-9z m-33-37c0 0-1 0 0 0l-36 4c-6 0-11 5-10 11 1 6 6 11 12 10l35-3c7 0 11-6 10-12-1-5-5-10-11-10z"/>
<glyph unicode="&#89;" d="M449 51l-386 0c-35 0-63 28-63 63l0 199c0 35 28 62 63 62l387 0c35 0 63-27 63-62l0-200c-1-35-30-62-64-62z m-386 303c-24 0-42-18-42-41l0-199c0-23 18-41 42-41l386 0c24 0 42 18 43 40l0 200c0 23-18 41-42 41z m-43 107l472 0 0-22-472 0z m373-11l21 0 0-61-21 0z m-296 0l21 0 0-61-21 0z m296-114l21 0 0-22-21 0z m-296 0l21 0 0-22-21 0z m4-223l-40 153 21 0 19-77c5-19 9-39 12-52 2 14 8 33 13 53l21 77 22 0 19-77c4-18 8-36 10-52 4 17 8 34 13 52l22 77 21 0-45-153-21 0-19 78c-6 19-9 34-11 50-3-15-7-30-13-50l-22-79z m194 153l0-153-20 0 0 153z m37-153l0 153 22 0 51-77c12-18 22-34 29-49-2 20-2 38-2 63l0 64 19 0 0-153-20 0-50 77c-11 17-22 34-30 51l-1 0c1-19 2-37 2-63l0-65-20 0z"/>
<glyph unicode="&#90;" d="M185 393c-32 0-59 26-59 59 0 33 27 60 59 60 32 0 58-27 58-60 0-33-26-59-58-59z m0 98c-21 0-38-17-38-39 0-21 17-38 38-38 20 0 37 17 37 38 0 22-17 39-37 39z m70-492c-5 0-14 1-20 7-12 11-14 31-5 46 16 24 23 45 19 62-7 25-54 52-78 65l-114-149c-6-8-15-13-25-13-6 0-14 2-19 8-13 10-15 32-7 45l97 148 0 91c-35 9-59 27-73 55-20 43-2 91 3 102 6 10 15 15 26 15 6 0 11-2 17-5 14-10 18-28 10-43 0 0-9-23-1-39 9-15 33-24 73-24 143 0 148-7 156-15 12-12 16-31 6-47l-1-1c-6-8-15-13-25-13-4 0-9 3-11 4-1 0-1 1-2 1-6 2-24 4-55 4l0-79c44-25 71-55 81-91 11-38 1-80-26-120-8-10-16-14-26-14z m-92 206l8-3c8-5 86-41 97-83 6-23-1-50-21-78-3-6-3-14 2-19 1-1 3-2 5-2 2 0 4 0 7 5 25 35 32 70 24 102-9 31-34 59-76 81l-5 3 0 112 10 0c62-1 70-4 74-6l2-1c1 0 2-1 3-1 1 0 5 0 7 4 4 7 3 16-2 20-1 1-3 2-3 3-4 4-27 8-138 8-48 0-79 12-92 34-11 22-1 51 2 58 3 6 1 13-3 17-1 1-3 1-5 1-4 0-6-2-7-5 0 0-21-43-3-83 12-23 33-38 67-43l9-2 0-115-102-154c-3-5-2-14 4-17 2-2 3-3 5-3 3 0 5 1 7 5z m187 81l-18 12c18 26 1 45 1 45l16 14c9-10 22-39 1-71z m1 46l150 0 0-22-150 0z"/>
<glyph unicode="&#48;" d="M380 0l-248 0c-37 0-68 31-68 68l0 259c0 38 31 69 68 69l12 0 0 39 224 0 0-39 12 0c37 0 68-31 68-69l0-259c0-37-31-68-68-68z m-248 374c-26 0-47-20-47-47l0-259c0-26 21-47 47-47l248 0c26 0 47 21 47 47l0 259c0 27-21 47-47 47l-33 0 0 40-182 0 0-40z m267 40l-286 0 0 98 286 0z m-265 21l244 0 0 56-244 0z m122-337c-79 0-143 47-143 104 0 56 64 103 143 103 79 0 143-47 143-103 0-57-64-104-143-104z m0 186c-67 0-122-38-122-82 0-45 55-83 122-83 67 0 122 38 122 83 0 44-55 82-122 82z"/>
<glyph unicode="&#49;" d="M512 145l-509 0-1 12c-1 9-2 17-2 26 0 101 81 183 181 183l2 0c93 0 170-68 182-160l147-30z m-490 21l431 0-107 23-1 7c-8 85-77 149-162 149l-2 0c-88 0-160-73-160-162 0-5 0-11 1-17z m33 46l-20 7c1 4 33 101 114 111l2-22c-67-7-96-95-96-96z"/>
<glyph unicode="&#50;" d="M141 1c-20 0-55 21-88 53-27 28-69 81-48 104 4 3 8 6 16 6 21 0 55-21 88-53 28-28 69-81 48-104-2-3-8-6-16-6z m-119 142c-1 0-1 0-1 0-1-4 10-34 48-73 31-31 60-47 72-47 1 0 1 0 1 0 1 5-10 35-48 73-30 30-59 47-72 47z m128-141c-3 0-5 1-7 3-4 5-4 11 0 15 1 7-10 37-48 74-31 31-60 48-72 48-1 0-2 0-2 0-4-4-10-4-15 0-4 4-4 11 0 15l100 99c2 3 7 6 16 6 20 0 55-22 87-54 33-32 54-66 54-86 0-9-3-14-6-17l-99-100c-2-2-4-3-8-3z m-111 158c21-7 46-26 71-51 19-19 41-48 50-72l82 82c2 6-7 35-48 74-30 30-60 48-72 48-1 0-1 0-1 0z m351 91c-20 0-54 21-87 53-19 19-34 38-44 57-12 21-13 37-3 46 3 4 7 7 16 7 20 0 54-21 87-53 20-20 35-39 44-57 12-21 13-37 3-47-2-3-7-6-16-6z m-118 142c-1 0-1 0-1 0-1-5 10-35 48-73 31-31 60-47 71-47 1 0 1 0 1 0 2 4-9 34-48 73-29 29-59 47-71 47z m127-141c-3 0-5 1-8 3-2 2-3 5-3 7 0 3 1 6 3 8 2 6-9 36-48 73-30 31-59 48-71 48-1 0-2 0-2 0-4-4-11-4-15 0-4 5-4 11 0 15l99 100c3 3 9 6 17 6 20 0 55-21 88-54 33-32 54-67 54-87 0-8-3-14-6-17l-100-99c-3-2-5-3-8-3z m-111 158c20-8 46-26 70-52 20-19 42-48 51-71l82 82c2 5-8 34-48 74-31 31-60 48-72 48-1 0-2 0-2 0z m36-71l15-15-130-130-15 15z"/>
<glyph unicode="&#51;" d="M356 0c-31 0-54 23-54 54l0 404c0 31 23 54 54 54 31 0 55-23 55-54l0-404c0-31-24-54-55-54z m0 491c-18 0-33-15-33-33l0-404c0-18 15-33 33-33 18 0 33 15 33 33l0 404c0 18-15 33-33 33z m62-207l-31 45-63 0-29-44-17 10 33 55 87 0 37-53z m-262-284c-31 0-55 23-55 54l0 404c0 31 24 54 55 54 31 0 54-23 54-54l0-404c-1-31-25-54-54-54z m0 491c-18 0-33-15-33-33l0-404c0-18 15-33 33-33 18 0 32 15 33 33l0 404c0 18-15 33-33 33z m61-207l-31 45-63 0-29-44-17 10 33 55 86 0 38-53z m-217 130l21 0 0-403-21 0z m491 0l21 0 0-403-21 0z"/>
<glyph unicode="&#52;" d="M299 0l-288 0c-4 0-7 1-9 4-2 3-2 7-2 10l49 173c1 3 4 6 8 7 3 1 7 0 9-2 36-33 72-49 106-49 79 0 126 91 127 92l116 247c8 18 26 30 46 30 8 0 16-2 23-5 26-15 35-47 23-74l-172-372c-1-2-2-3-2-4 0 0-1-2-1-2l-24-49c-2-4-5-6-9-6z m-274 21l266 0 20 43c2 2 2 3 3 4 0 0 1 1 1 1l172 373c8 17 2 37-13 45-5 3-9 4-13 4-12 0-22-7-27-17l-116-250c-2-4-55-103-146-103-35 0-72 14-107 43z m378 393l46-98-20-9-46 97z m-27-62l46-96-20-9-46 96z m-30-63l47-97-19-9-47 97z m85 180l46-96-19-9-46 96z"/>
<glyph unicode="&#53;" d="M299 0l-86 0c-25 0-46 20-46 46l0 198 6 3c12 8 18 20 18 31 0 13-6 25-18 31l-6 4 0 60c0 26 21 46 46 46l87 0c25 0 46-20 46-46l0-60-6-4c-11-7-18-19-18-31 0-12 7-24 18-32l5-3 0-197c0-26-21-46-46-46z m-110 233l0-187c0-13 12-25 24-25l86 0c12 0 24 12 24 25l0 187c-14 11-22 28-22 45 0 19 8 36 23 46l0 49c0 13-11 25-24 25l-87 0c-12 0-24-12-24-25l0-49c15-11 23-27 23-46 0-18-8-35-23-45z m24 219l86 0 0-21-86 0z m32 49l22 0 0-59-22 0z"/>
<glyph unicode="&#54;" d="M326 195l-1 22c56 2 96 6 135 11 16 2 29 18 29 34l0 136c0 16-14 32-29 34-136 18-273 18-410 0-15-2-29-18-29-34l0-136c0-16 14-32 29-34 51-6 93-9 132-11l-1-22c-39 2-82 6-134 12-26 4-47 29-47 55l0 136c0 27 21 51 48 55 139 18 278 18 416 0 27-4 48-28 48-55l0-136c0-26-21-51-48-55-39-5-81-10-138-12z m-70-92c-46 0-83 38-83 84 0 46 37 83 83 83 46 0 83-37 83-83 0-46-37-84-83-84z m0 146c-34 0-62-28-62-62 0-34 28-62 62-62 34 0 62 28 62 62 0 34-28 62-62 62z m0-203c-64 0-122 45-138 108l21 5c12-52 62-91 116-91 54 0 101 37 115 88l20-6c-15-61-70-104-134-104z"/>
<glyph unicode="&#55;" d="M253 0c-141 0-256 115-256 256 0 141 115 256 256 256 141 0 256-115 256-256 0-141-115-256-256-256z m0 491c-129 0-235-106-235-235 0-129 106-235 235-235 129 0 234 106 234 235 0 129-105 235-234 235z m0-319c-47 0-84 37-84 84 0 47 37 84 84 84 47 0 84-37 84-84 0-47-37-84-84-84z m0 147c-35 0-63-28-63-63 0-35 28-63 63-63 35 0 63 28 63 63 0 35-28 63-63 63z m-246-52l172 0 0-22-172 0z m326 0l172 0 0-22-172 0z m-91-91l21 0 0-165-21 0z"/>
<glyph unicode="&#56;" d="M21 454l46-442-21-2-46 442z m75-123c-27 0-53 4-78 14l-6 2-1 6c-2 16-5 32-7 48 0 14-2 28-4 43l-2 17 16-6c35-11 70-14 111-9l10 1 2-11c2-15 4-30 6-46 2-15 3-29 5-44l1-11-10-2c-13-1-28-2-43-2z m-64 31c30-10 61-13 95-9-1 12-3 24-4 35-1 12-4 24-5 35-34-4-65-2-95 7 2-9 3-18 4-27 2-14 3-28 5-41z m98-29l-1 10c-2 15-4 30-6 46-2 15-4 30-6 45l-1 11 11 2c37 6 76 18 110 31l10 2 3-13c2-16 4-32 6-48 2-14 3-28 5-42l1-9-8-3c-37-13-76-26-114-31z m9 94c1-12 3-24 4-36 1-11 3-23 4-34 30 6 61 16 91 26 0 12-2 22-3 34-1 12-4 24-5 35-29-10-60-19-91-25z m102-65l-2 12c-2 15-4 30-6 46-3 15-4 30-6 45l-1 9 13 4c36 13 71 24 109 30l10 1 1-11c5-30 9-60 12-91l1-9-9-2c-38-7-76-18-110-31z m9 97c2-12 3-25 4-38 1-10 2-21 4-32 30 10 61 20 92 26-2 23-7 47-10 69-30-5-59-15-90-25z m242-77l-16 5c-35 12-71 15-111 10l-11-1-1 10c-2 15-4 31-6 46-2 15-4 30-6 45l-1 11 11 2c44 7 84 4 122-11l6-2 1-6c2-15 4-30 6-46 3-15 4-30 6-45z m-89 39c23 0 43-3 63-8-1 9-2 19-3 29-1 12-3 25-5 38-30 11-61 14-95 10 1-12 3-24 4-36 1-11 3-23 4-35 12 1 22 2 32 2z m-295-181c-27 0-54 4-78 14l-5 2-2 6c-2 15-4 30-5 45-2 15-3 30-5 45l-2 17 16-5c34-12 69-15 111-9l10 1 1-10c2-15 5-29 6-43 2-16 4-32 6-48l1-11-11-2c-13-1-28-2-43-2z m-64 31c30-10 61-13 95-9-2 13-4 25-6 38-1 10-2 21-4 32-33-3-64-1-94 6 1-9 2-19 3-29 3-11 4-25 6-38z m97-29l-1 11c-2 15-5 30-7 46-2 15-3 30-5 44l-1 11 11 2c37 7 75 18 109 31l12 4 2-12c5-30 9-61 12-91l1-9-13-4c-36-13-71-24-108-30z m8 94c1-12 4-23 5-35 1-12 3-24 4-34 31 5 61 15 92 25-3 23-6 46-9 70-30-11-61-20-92-26z m104-65l-2 13c-2 15-5 30-7 46-2 15-3 29-5 44l-1 9 13 4c36 13 71 25 108 30l11 1 1-11c2-16 4-32 7-48 2-13 3-28 5-42l1-11-11-2c-37-6-75-18-110-31z m8 97c2-12 4-25 5-36 1-11 3-22 4-32 29 9 60 19 92 25-1 11-4 23-5 33-1 13-3 25-4 37-31-7-61-16-92-27z m241-78l-16 5c-35 12-70 15-111 10l-10-1-1 11c-2 15-5 31-7 46-2 14-3 29-5 44l-1 11 11 2c43 8 84 4 121-11l7-2 1-6c4-30 8-60 11-91z m-88 40c22 0 43-4 64-9-3 24-5 46-9 68-30 10-60 13-95 9 1-12 4-24 5-35 1-12 3-24 4-36 11 2 20 3 31 3z m-296-182c-26 0-53 5-77 14l-7 2 0 7c-2 15-4 30-6 46-2 14-3 29-6 44l-2 17 16-5c35-12 71-15 111-10l11 2 1-11c4-30 8-60 12-91l1-9-10-3c-14-2-29-3-44-3z m-64 31c30-9 61-13 95-8-2 23-6 47-9 69-33-3-64-2-94 6 1-9 2-19 3-28 2-12 3-26 5-39z m99-29l-2 11c-2 15-4 30-6 46-2 15-3 30-5 45l-1 10 10 3c38 6 76 18 110 30l12 5 2-13c2-16 4-32 6-48 3-14 4-28 6-43l1-8-14-7c-36-12-71-24-109-30z m8 94c1-11 3-23 4-35 1-12 4-23 5-34 31 5 59 15 90 26-1 11-3 22-4 34-1 11-3 23-4 35-29-11-60-19-91-26z m104-64l-3 13c-2 15-4 30-5 46-2 15-3 30-5 45l-1 8 12 5c37 12 72 24 109 29l11 1 1-10c2-15 4-31 6-46 3-15 4-30 6-45l1-11-11-2c-37-6-76-18-110-31z m8 97c2-11 3-24 4-37 1-11 2-21 5-32 28 10 59 19 91 26-1 11-3 23-4 35-1 12-3 23-4 34-31-5-61-15-92-26z m241-78l-16 6c-35 12-70 15-111 9l-10-1-2 11c-2 15-4 30-5 46-2 15-4 31-6 46l-1 10 10 3c44 7 85 4 122-11l6-2 1-7c3-16 5-32 7-48 2-14 3-28 5-42z m-88 40c22 0 42-3 63-9-2 9-3 19-4 27-2 14-3 28-5 42-30 9-61 12-95 8 1-12 3-23 4-35 1-12 4-23 5-34 11 0 21 1 32 1z"/>
<glyph unicode="&#57;" d="M110 1c-30 0-58 11-79 31-21 21-32 51-31 82 1 31 13 59 34 78 105 96 202 193 287 287 19 21 49 34 81 34 30 0 58-11 79-31 21-22 33-53 32-84-1-30-14-58-34-75-106-96-202-193-287-287-20-23-50-35-82-35z m291 490c-26 0-50-10-65-27-85-95-182-192-289-289-15-14-26-37-26-62-1-26 9-49 26-66 16-16 39-25 63-25 25 0 50 10 65 27 85 95 182 192 289 289 16 14 26 36 27 60 1 27-8 50-26 68-17 16-39 25-64 25z m-341-296l160-109-12-18-160 109z m34 33l160-110-12-17-160 109z m172 172l160-110-12-18-160 110z m34 34l159-110-12-17-159 109z"/>
<glyph unicode="&#33;" d="M286 0l-60 0c-5 0-9 4-11 10l-10 96c-38 16-64 48-74 86-1 3 0 6 2 10 2 2 6 4 9 4l230 0c3 0 7-1 9-4 2-3 3-7 2-10-11-38-38-70-74-85l-10-96c-4-7-8-11-13-11z m-50 21l40 0 11 93c0 4 3 8 7 9 28 10 51 32 62 60l-200 0c10-27 34-49 63-60 3-1 6-5 6-9z m114 161c-5 0-10 5-11 10 0 2-1 4-2 6-2 7-5 17 3 27 11 10 15 25 11 35-1 3-3 7-6 10-6 7-12 17-12 28 0 0 0 1 0 1 1 9 5 17 8 23 5 10 4 24-2 33-3-15-13-29-25-37-5-2-10-2-13 1-3 3-4 8-2 13 5 10 4 23-4 31-5 6-12 10-20 16-8 5-17 10-23 18 0 0 0 1-1 1-2 3-6 7-7 14 0 0 0 1 0 1-1 10 5 18 9 25 2 4 4 7 5 10 2 7 1 16-1 22l-1 6c-3-5-6-9-12-13-4-2-7-4-11-6-7-4-12-7-15-11-9-11-1-30 3-37 2-4 4-8 6-11 8-12 14-25 16-40 2-24-9-45-22-65-3-4-9-6-14-3-5 2-8 9-5 13 1 3 0 7-3 12 0-6-2-11-3-16-3-7-6-13-10-20-4-4-6-8-8-12-9-22-13-58-2-64 5-4 6-10 3-15-3-6-9-7-15-3-26 16-17 67-6 91 3 6 6 11 9 15 4 6 7 11 9 15 4 9 3 20-2 29-2 4-2 10 1 13 3 3 8 4 13 2 9-4 18-11 25-18 1-1 2-2 4-5 4 9 6 19 5 28-1 11-7 20-14 31-2 4-4 8-6 12-8 14-17 40-1 61 6 8 14 12 22 16 3 2 6 3 10 5 5 3 8 7 9 21 0 5 3 8 7 10 4 1 8 0 11-2 10-10 13-18 16-26l1-3c4-10 7-23 1-37-1-6-4-10-6-13-3-5-5-9-5-12 1-2 2-4 3-6 4-6 11-10 18-14 9-5 18-12 26-20 3-4 5-8 7-12 0 4 0 8-1 12 0 2-2 4-3 6-3 6-9 16-3 27 2 4 6 6 10 5 5-1 9-4 9-9 1-7 6-13 13-21 3-3 5-7 8-11 12-16 15-40 8-59-4-7-6-12-7-17 0-5 4-10 8-15 3-5 6-9 8-14 8-19 2-43-15-59 0-1 1-4 1-5 1-3 2-7 2-11 2-5-3-10-9-12 1-1 0-1 0-1z"/>
<glyph unicode="&#34;" d="M333 0l-155 0-3 2c-76 58-126 193-127 345l0 7c0 36 0 85 25 107 36 32 104 51 183 51 85 0 156-21 189-58 19-22 18-56 17-86 0-6 0-14 0-20 0-152-49-287-126-346z m-148 21l140 0c70 56 114 184 114 327 0 6 0 14 0 20 2 28 3 55-11 71-27 32-93 52-172 52-73 0-138-17-169-45-18-16-18-61-18-91l0-7c1-144 46-271 116-327z m306 309l21 0 0-149-21 0z m-491 0l21 0 0-149-21 0z m318 7l-131 0c-16 0-28 12-28 28l0 64c0 16 12 28 28 28l131 0c16 0 28-12 28-28l0-64c0-16-12-28-28-28z m-131 98c-4 0-7-3-7-6l0-64c0-3 3-7 7-7l131 0c3 0 6 4 6 7l0 64c0 3-3 6-6 6z m87-369c-9 0-17 1-21 1-3 0-11-1-19-1-46 0-75 13-84 36-5 16-1 27 4 32 7 11 21 14 33 15-4 16-14 42-42 44-24 2-42 22-40 51 1 37 28 73 80 73l135 0c51 0 80-36 81-73 1-29-15-49-39-51-28-2-38-28-42-44 12-1 26-4 33-15 4-5 9-16 3-32-8-23-36-36-82-36z m-20 23c4 0 12-2 20-2 20 0 55 4 61 23 1 4 2 9 0 13-3 4-12 6-22 6-4 0-5 0-6 0l-12-1 2 13c2 24 17 71 62 74 15 2 21 16 20 29-1 22-17 53-60 53l-132 0c-43 0-59-31-59-53 0-13 4-27 20-29 46-3 62-50 63-74l1-13-13 1c0 0-2 0-5 0-11 0-19-2-22-6-2-4-1-9 0-13 6-20 46-23 63-23 8 0 16 2 19 2z"/>
<glyph unicode="&#35;" d="M94 43c-15 0-37 2-52 20-13 15-17 36-12 65 1 4 2 9 2 13 3 15 5 30 4 44-1 13-7 26-14 40-4 10-8 19-11 29-7 19-10 41-10 69 0 41 9 96 47 125 23 18 54 21 81 22 21 0 45-1 65-15 15-10 26-28 29-49 2-15 0-29-5-41 6 4 17 4 24-2 8-6 10-14 11-21 8-34 3-71-13-103-4-8-9-15-13-21-6-10-13-20-17-30-7-17-11-38-9-58 0-4 0-8 0-13 0-8 0-18 0-26-4-21-12-33-24-40-10-5-21-6-29-6-6 0-11 0-18 0-6 0-13-1-19-1-6-1-12-1-17-1z m35 406c-24-1-49-4-68-18-32-24-39-72-39-108 0-25 4-45 9-63 3-9 6-18 11-26 6-15 13-30 15-48 2-16-2-33-5-49-1-5-1-9-2-12-3-23-1-39 8-48 8-9 19-13 36-13 4 0 9 0 15 1 7 0 13 0 19 1 6 0 13 1 19 1 9 0 15 1 19 4 7 4 11 12 13 24 1 7 0 15 0 23 0 5 0 9 0 13-1 24 3 47 12 66 4 12 12 23 18 33 4 7 9 13 12 20 14 26 18 58 10 88-1 3-1 8-2 8 0-1-1-3-1-4-1-1-1-4-2-6-1-3-2-6-3-10-2-7-11-31-30-31-2 0-4 0-6 2-7 1-11 5-14 11-4 9-4 19 0 29 3 8 8 13 13 17 2 2 4 5 6 9 9 10 12 25 10 40-4 15-10 28-21 35-14 10-34 11-52 11z m78-101c-2-2-4-6-6-8-5-4-8-8-10-13-2-4-1-9 0-10 1 0 5 1 11 17 1 2 2 5 2 7 2 2 3 5 3 7z m211-305c-5 0-11 0-17 1-5 0-12 0-18 0-6 0-12 0-18 0-8 0-19 1-30 6-12 7-20 19-24 39-1 9-1 19 0 27 0 5 0 9 0 13 2 21-2 41-9 58-4 10-11 20-17 30-4 6-9 13-13 21-16 31-20 69-13 103 1 7 3 14 11 21 7 5 18 6 24 2-5 13-7 27-5 41 3 21 14 39 28 49 20 14 44 15 65 15 28 0 59-3 82-21 38-29 47-84 47-125 0-28-3-50-11-69-3-10-7-19-11-29-7-14-13-27-14-40-1-14 1-29 4-44 1-4 1-9 2-13 4-29 1-50-12-65-14-18-36-20-51-20z m-135 303c-1-1-2-5-2-8-8-30-4-62 10-88 3-7 8-13 12-20 6-10 14-21 18-34 9-19 13-42 12-66 0-4 0-8 0-13 0-8 0-16 0-24 2-11 6-19 13-23 5-3 10-4 20-4 6 0 13 0 19-1 6 0 12 0 18 0 7-1 12-1 16-1 17 0 29 4 35 13 9 9 11 26 8 48-1 4-1 7-2 12-3 16-7 33-5 49 2 17 9 32 15 47 5 8 9 17 11 25 6 18 10 37 10 63 0 36-7 84-39 108-19 14-45 17-68 18-18 0-37-1-52-11-10-7-17-20-19-35-5-13-2-28 7-38 2-4 4-6 6-9 5-5 9-11 13-17 4-10 4-20 0-29-3-6-8-10-15-11-1 0-3-2-5-2-19 0-28 24-30 31-1 4-2 7-3 10-1 2-1 5-2 7 0 2-1 2-1 3z m22 2c1-2 1-3 2-6 1-2 1-5 2-7 6-16 11-17 11-17 2 1 3 6 1 11-2 3-5 7-10 11-3 2-4 6-6 8z"/>
<glyph unicode="&#36;" d="M74 347l-45 0c-16 0-29 12-29 28l0 107c0 16 13 30 29 30l45 0c16 0 28-13 28-29l0-106c0-18-12-30-28-30z m-45 144c-3 0-8-4-8-9l0-107c0-3 2-7 8-7l45 0c5 0 7 4 7 9l0 106c0 3-2 8-7 8z m454-144l-45 0c-16 0-28 12-28 28l0 107c0 16 12 29 28 29l45 0c16 0 29-13 29-29l0-107c0-16-13-28-29-28z m-45 143c-3 0-7-3-7-8l0-107c0-3 2-7 7-7l45 0c3 0 8 4 8 7l0 107c0 3-2 8-8 8z m-346-51l328 0 0-21-328 0z m164-116c-26 0-46 22-46 47 0 26 20 47 46 47 26 0 46-21 46-47 0-25-20-47-46-47z m0 73c-14 0-25-12-25-26 0-14 11-25 25-25 14 0 25 11 25 25 0 14-11 26-25 26z m98-396l-4 0c-14 3-24 17-23 32l10 76-67 37-29 0-67-37 9-76c3-16-8-31-23-32l-3 0c-13 0-25 11-27 25l-13 96c-2 11 5 23 14 28l70 39 0 64-86 110c-8 11-7 29 3 39 11 11 30 9 39-3l78-100 36 0 80 100c4 6 13 11 20 11 7 0 13-3 18-8 10-12 11-28 2-39l-82-107 0-67 71-39c9-5 16-17 14-28l-13-96c-2-14-14-25-27-25z m0 21c2 0 5 2 7 6l12 96c0 3-1 6-3 7l-82 45 0 86 89 113c2 4 2 9-2 12 0 0-1 0-2 0-1 0-2 0-3-2l-86-109-58 0-84 109c-1 2-3 2-4 2-1 0-3 0-3-1-3-3-3-8-1-12l87-111 3-3 0-85-81-45c-2-1-3-4-3-7l13-96c0-4 3-6 5-6l1 0c2 1 4 5 4 9l-12 90 85 48 39 0 84-48-11-90c1-3 3-7 6-8z"/>
<glyph unicode="&#37;" d="M79 218l-21 0 0 166c0 36 28 65 65 65l57 0 0-21-57 0c-25 0-44-19-44-44z m337-218l-293 0c-37 0-65 29-65 65l0 31 21 0 0-31c0-24 19-44 44-44l293 0c25 0 44 20 44 44l0 319c0 25-19 44-44 44l-60 0 0 21 60 0c36 0 65-29 65-65l0-319c0-36-29-65-65-65z m-46 378l-200 0 0 91 200 0z m-179 21l158 0 0 49-158 0z m79 49c-19 0-35 14-35 32 0 18 16 32 35 32 19 0 35-14 35-32 0-18-16-32-35-32z m0 43c-8 0-14-6-14-11 0-5 6-11 14-11 7 0 14 6 14 11 0 5-7 11-14 11z m-147-427c-52 0-93 42-93 93 0 51 41 93 93 93 51 0 92-42 92-93 0-51-41-93-92-93z m0 164c-40 0-72-32-72-71 0-40 32-72 72-72 39 0 71 32 71 72 0 39-32 71-71 71z m-23-118l-36 46 17 13 21-27c14 14 43 38 71 47l6-20c-33-11-69-51-70-51z"/>
<glyph unicode="&#38;" d="M355 0l-198 0c-46 0-86 39-86 85l0 342c0 46 40 85 86 85l198 0c46 0 86-39 86-85l0-342c0-46-40-85-86-85z m-198 491c-35 0-64-29-64-64l0-342c0-35 29-64 64-64l198 0c35 0 64 29 64 64l0 342c0 35-29 64-64 64z m98-344c-3 0-5 1-8 3-6 7-12 13-18 20-43 45-85 89-85 122 0 41 29 72 66 72 18 0 35-8 47-21 13 13 29 21 47 21 17 0 32-7 45-19 13-14 20-32 19-53 0-32-44-78-85-122-7-7-13-13-18-20-5-2-7-3-10-3z m-46 196c-26 0-45-22-45-50 0-24 43-69 80-108 3-5 8-8 11-12 3 4 7 7 11 12 34 35 80 84 80 108 0 15-5 28-14 38-8 8-18 12-29 12-15 0-29-8-38-22-3-3-6-5-10-5-4 0-8 2-9 5-7 14-21 22-37 22z"/>
<glyph unicode="&#39;" d="M422 32l-371 0c-28 0-51 23-51 51 0 28 23 51 51 51l371 0c28 0 52-23 52-51 0-28-24-51-52-51z m-371 81c-16 0-30-14-30-30 0-16 14-30 30-30l371 0c16 0 30 14 30 30 0 16-14 30-30 30z m365 6l-19 9 92 219-55 62 15 14 65-72z m-131 303c-26 0-47 21-47 45 0 25 21 45 47 45 25 0 47-20 47-45 0-24-22-45-47-45z m0 69c-14 0-26-11-26-24 0-13 12-23 26-23 14 0 25 10 25 23 0 13-11 24-25 24z m47-352c-15 0-28 9-31 23 0 1-1 2-1 3-19 49-46 79-70 96-9-26-22-46-40-60-25-20-55-27-89-23-17 1-30 17-28 35 1 17 18 30 36 28 17-2 30 1 39 9 22 16 25 52 25 52 0 4 1 9 4 14l26 57c-4 0-6 0-7-1-9-4-16-20-20-46-1-15-15-27-32-27l-3 0c-10 1-17 5-23 11-5 7-7 15-7 24 7 48 27 80 58 94 30 15 68 9 108-15 7-4 14-7 22-7 22 0 41 20 46 24l1 1c10 13 32 15 45 4 8-5 12-13 13-21 1-8-1-16-6-21-18-24-56-48-95-50l-18-43c53-46 73-104 79-121l0-2c3-16-7-32-22-37-4-1-8-1-10-1z m-14 37l1 0 2-9c1-4 5-7 11-7l2 1c6 2 9 8 8 13-5 18-26 73-79 116l-6 5 29 72 7 0c36-2 69 20 86 40 1 3 2 4 2 6 0 1-1 4-4 7-3 2-6 2-8 2-3 0-7-1-10-4-6-8-30-32-62-32-11 0-22 3-32 9-36 21-66 26-90 15-24-11-40-38-45-77 0-2 1-6 2-8 2-2 5-3 8-4l2 0c5 0 11 3 11 9 5 34 14 53 30 61 9 5 22 5 35 2l11-4-36-84c-1-1-1-2-1-3 0-3-4-47-33-68-13-11-32-15-54-13 0 0-2 0-2 0-5 0-10-3-11-9-1-6 4-11 9-11 6-2 11-2 16-2 22 0 41 7 57 20 17 14 30 35 38 64l5 14 11-8c28-19 65-52 90-113z m-259-155l51 0 0-21-51 0z m296 0l51 0 0-21-51 0z"/>
<glyph unicode="&#40;" d="M256 0c-100 0-182 82-182 182 0 101 82 183 182 183 100 0 182-82 182-183 0-100-82-182-182-182z m0 343c-89 0-161-72-161-161 0-88 72-161 161-161 89 0 161 73 161 161 0 89-72 161-161 161z m-11 85l22 0 0-135-22 0z m0-357l22 0 0-60-22 0z m122 122l61 0 0-21-61 0z m-283 0l61 0 0-21-61 0z m172-35c-14 0-25 11-25 24 0 14 11 25 25 25 14 0 25-11 25-25 0-13-11-24-25-24z m0 28c-2 0-3-1-3-4 0-2 1-3 3-3 2 0 3 1 3 3 0 3-1 4-3 4z m-84 83l128-113-14-16-128 113z m84 92c-42 0-76 34-76 75 0 42 34 76 76 76 42 0 76-34 76-76 0-41-34-75-76-75z m0 130c-30 0-54-25-54-55 0-30 24-54 54-54 30 0 54 24 54 54 0 30-24 55-54 55z m-27-37l57 0 0-21-57 0z m144-80l44-36-13-16-44 35z"/>
<glyph unicode="&#41;" d="M437 107l-362 0c-42 0-75 33-75 74l0 150c0 41 33 74 75 74l362 0c42 0 75-33 75-74l0-150c0-41-33-74-75-74z m-362 277c-30 0-54-23-54-53l0-150c0-30 24-53 54-53l362 0c30 0 54 23 54 53l0 150c0 30-24 53-54 53z m307-237l-252 0c-6 0-11 4-11 11l0 196c0 7 5 11 11 11l252 0c6 0 11-4 11-11l0-196c0-7-5-11-11-11z m-241 22l230 0 0 174-230 0z m266 98l60 0 0-22-60 0z m20 19l21 0 0-60-21 0z m-356-76c-25 0-45 20-45 46 0 26 20 46 45 46 26 0 46-20 46-46 0-26-20-46-46-46z m0 71c-13 0-24-11-24-25 0-14 11-25 24-25 14 0 25 11 25 25 0 14-11 25-25 25z"/>
<glyph unicode="&#42;" d="M256 0c-87 0-159 71-159 159 0 87 72 159 159 159 87 0 159-72 159-159 0-88-72-159-159-159z m0 297c-76 0-138-62-138-138 0-76 62-138 138-138 76 0 138 62 138 138 0 76-62 138-138 138z m47 43l-101 0c-4 0-8 2-9 6l-97 150c-2 3-2 7 0 11 1 3 4 5 9 5l101 0c3 0 7-2 8-5l97-151c3-3 3-7 0-10-1-4-4-6-8-6z m-96 22l76 0-82 129-76 0z m103-20l-17 12 94 137-74 0-44-68-18 12 47 73c1 2 5 4 8 4l101 0c5 0 8-2 10-5 2-4 1-8-1-11z m-43-260l-22 0 0 131-23-21-15 15 60 53z m-47 11l72 0 0-22-72 0z"/>
<glyph unicode="&#43;" d="M445 0l-378 0 0 512 378 0z m-356 21l334 0 0 470-334 0z m297 356l-260 0 0 135 260 0z m-239 21l218 0 0 93-218 0z m239-398l-260 0 0 135 260 0z m-239 21l218 0 0 93-218 0z m-69 246l356 0 0-22-356 0z m178-81c-38 0-70 32-70 70 0 38 32 70 70 70 38 0 70-32 70-70 0-38-32-70-70-70z m0 119c-27 0-49-22-49-49 0-27 22-49 49-49 27 0 49 22 49 49 0 27-22 49-49 49z"/>
<glyph unicode="&#44;" d="M174 0l-163 0c-7 0-11 4-11 11l0 347c0 7 4 11 11 11l163 0c6 0 11-4 11-11l0-347c0-7-5-11-11-11z m-153 21l142 0 0 327-142 0z m480-21l-163 0c-6 0-11 4-11 11l0 264c0 7 5 11 11 11l163 0c7 0 11-4 11-11l0-264c0-7-4-11-11-11z m-152 21l142 0 0 244-142 0z m-12-21l-163 0c-7 0-11 4-11 11l0 490c0 7 4 11 11 11l163 0c6 0 11-4 11-11l0-490c0-7-5-11-11-11z m-152 21l141 0 0 470-141 0z m69 410l-15-8-2 9 18 10 10 0 0-84-11 0z m-190-223l0 6 9 9c21 20 30 31 30 44 0 8-4 16-16 16-7 0-13-5-18-8l-3 8c5 5 14 8 24 8 18 0 25-13 25-24 0-15-10-28-29-45l-6-7 37 0 0-9-53 0z m334-59c3-2 11-5 18-5 15 0 19 10 19 16 0 12-10 17-21 17l-7 0 0 9 7 0c8 0 18 4 18 13 0 7-4 13-15 13-6 0-13-3-17-5l-3 8c4 4 13 7 21 7 16 0 24-10 24-20 0-9-6-16-15-20 10-2 18-9 18-21 0-13-11-24-30-24-10 0-17 3-21 5z"/>
<glyph unicode="&#45;" d="M355 0l-198 0c-46 0-86 39-86 85l0 342c0 46 40 85 86 85l198 0c46 0 86-39 86-85l0-342c0-46-40-85-86-85z m-198 491c-35 0-64-29-64-64l0-342c0-35 29-64 64-64l198 0c35 0 64 29 64 64l0 342c0 35-29 64-64 64z m142-311c-16 0-32 7-44 18-12-11-28-18-44-18-35 0-63 28-63 63 0 30 21 55 48 61-2 6-3 13-3 19 0 35 28 63 63 63 35 0 63-28 63-63 0-7-1-13-2-19 10-3 20-9 28-16 11-12 17-28 17-45 0-35-28-63-63-63z m-44 46c3 0 7-2 8-5 8-13 22-19 36-19 23 0 41 18 41 41 0 12-3 22-10 30-8 8-17 12-29 12-4 0-8 2-10 5-2 3-1 8 1 11 3 5 6 13 6 21 0 24-20 42-42 42-22 0-42-18-42-42 0-6 3-15 7-23 2-4 1-8 0-11-2-3-6-5-10-5-23 0-41-18-41-42 0-23 18-42 41-42 14 0 28 8 34 20 2 5 6 7 10 7z m49-100l-96 0c-5 0-10 3-11 8-1 6 1 10 7 12 0 0 34 16 41 52 1 6 6 9 11 9 5 0 10-3 11-9 8-37 41-52 41-52 5-2 8-7 7-12-1-5-6-8-11-8z m-63 21l31 0c-5 6-11 12-15 20-5-8-11-14-16-20z"/>
<glyph unicode="&#46;" d="M398 0l-284 0c-3 0-5 1-7 3-2 2-4 6-4 8 3 48 37 89 88 108-12 9-18 21-18 32 0 19 14 34 36 43-4 13-7 26-7 40 0 5 0 10 1 15-70 36-119 137-120 252 0 4 1 6 3 8 3 2 5 3 8 3l324 0c3 0 5-1 8-3 2-2 3-4 3-8-1-115-50-216-120-251 1-5 1-10 1-15 0-14-2-28-6-40 22-9 35-24 35-42 0-12-6-24-18-32 51-20 86-61 88-109 0-3-2-6-4-8-2-3-4-4-7-4z m-272 21l260 0c-7 41-45 75-96 86-4 1-8 5-8 9 0 5 2 10 7 11 18 6 29 16 29 26 0 10-13 21-32 25-3 1-5 3-8 7-1 3-1 6 0 9 7 11 10 26 10 41 0 6-1 14-2 19-1 5 2 9 6 12 65 27 111 118 115 225l-302 0c4-107 50-198 114-225 4-3 7-7 6-12-1-7-2-13-2-19 0-14 3-29 10-42 1-3 1-6 0-10-2-3-5-5-7-6-19-5-32-16-32-26 0-9 12-19 29-25 4-1 7-7 7-11 0-4-4-8-8-9-51-10-89-44-96-85z m82 190c-89 22-153 86-191 135-17 22-22 53-12 81 8 24 26 42 48 48l37 8 5-20-37-10c-15-3-27-16-33-33-8-21-5-45 8-62 36-47 96-105 179-125z m95 0l-4 22c82 20 143 80 178 125 13 17 16 41 8 62-5 17-17 30-32 33l-35 9 5 20 36-8c21-5 39-23 47-47 9-28 5-60-13-82-38-48-102-111-190-134z m-47 126c-35 0-64 29-64 64 0 35 29 64 64 64 35 0 64-29 64-64 0-35-29-64-64-64z m0 107c-23 0-43-19-43-43 0-23 20-43 43-43 23 0 43 20 43 43 0 24-20 43-43 43z"/>
<glyph unicode="&#47;" d="M355 143c-29 0-56 4-83 12-100 30-212 33-244 33-6 0-9 0-9 0-5 0-9 3-10 7-31 107 22 188 24 191 3 4 9 5 13 4 29-12 57-19 86-19 37 0 59 11 60 11 3 2 7 1 11-1 2-1 178-115 247-116 26 0 44-9 53-24 16-23 4-56 4-58-1-2-2-4-5-5-2 0-63-35-147-35z m-327 66c33 0 147-2 250-33 25-7 52-12 77-12 67 0 120 25 134 32 2 8 5 24-3 34-6 9-18 13-36 14-69 1-224 98-254 118-9-5-32-11-63-11-27 0-57 5-86 17-11-21-38-83-19-159z m169 64l-9 19c38 21 59 48 61 48l17-13c-3-1-26-32-69-54z m49-26l-10 20c38 20 59 48 61 48l17-13c-1-1-25-32-68-55z m49-25l-9 19c39 20 60 48 61 48l17-13c-2-1-26-32-69-54z m-259-24l22 0 0-32-22 0z m59 0l21 0 0-32-21 0z m158-28l21 0 0-32-21 0z m71-16l22 0 0-23-22 0z m59 0l21 0 0-23-21 0z m62 10l21 0 0-22-21 0z"/>
<glyph unicode="&#58;" d="M11 429l490 0 0-22-490 0z m0-77l490 0 0-21-490 0z m0-78l490 0 0-21-490 0z m0-77l490 0 0-21-490 0z m-11 304l21 0 0-490-21 0z m82-83l21 0 0-231-21 0z m82 0l22 0 0-231-22 0z m81 0l22 0 0-231-22 0z m81 0l22 0 0-231-22 0z m83 0l21 0 0-231-21 0z m82 83l21 0 0-490-21 0z"/>
<glyph unicode="&#59;" d="M74 0c-8 0-15 3-22 9l-43 43c-12 13-12 31 0 43 11 11 27 11 39 3 23 32 58 74 103 127 103 122 221 252 235 265 14 13 32 21 52 21 21 0 39-8 53-21 28-29 28-76 0-105-20-18-258-236-393-337 4-5 7-12 7-18 0-9-4-16-10-23-6-5-14-7-21-7z m-44 82c-2 0-5-1-8-3-3-3-3-9 1-13l44-44c2-1 4-1 7-1 2 0 5 1 7 4 2 1 3 3 3 5 0 2-1 4-3 5l-6 7c-2 2-4 5-4 8 0 3 3 7 5 8 131 97 381 324 400 342 20 20 20 54 0 75-10 9-24 15-38 15-13 0-27-6-37-15-14-13-133-145-234-263-50-59-85-102-109-135-3-2-5-4-8-4-3 0-6 1-8 3l-6 5c-2 1-4 1-6 1z m139 148l60-60-15-15-60 60z m-64 100c-39 0-70 31-70 69 0 38 31 69 70 69 38 0 69-31 69-69 0-38-31-69-69-69z m0 117c-27 0-48-21-48-48 0-27 21-48 48-48 26 0 48 21 48 48 0 27-22 48-48 48z"/>
<glyph unicode="&#60;" d="M352 94c-91 0-135 30-150 43l-79-36-61 0-3 5c-2 3-59 69-29 145 27 66 0 177 0 178l-2 12 227 28-1-14c-12-97 41-149 78-183 5-5 10-11 15-15 23-26 108-53 138-62l2-1 2-1c3-2 29-23 23-49-6-25-41-39-102-47-21-2-40-3-58-3z m-145 68l5-6c0 0 38-42 141-42 17 0 35 1 53 3 74 9 84 26 85 31 2 10-9 21-14 26-16 4-116 35-147 67-5 4-9 9-14 14-34 33-92 88-86 188l-177-22c7-32 21-119-3-179-21-54 12-105 23-119l45 0z m256-117l-452 0 0 21 452 0c5 0 14 1 16 5 4 9-4 28-12 40l18 12c5-7 25-40 13-61-4-9-14-17-35-17z m-370 67l21 0 0-57-21 0z m242 0l21 0 0-57-21 0z m40 51c-7 2-13 4-21 8l8 20c6-2 12-4 19-6z m-41 17c-7 3-13 8-19 12l11 18c6-3 12-7 17-11z m-37 24c-6 4-12 9-18 15l15 16c6-5 11-10 15-14z m-32 31c-6 5-10 10-14 17l17 13c4-6 8-11 13-16z m-27 34c-4 6-9 13-12 18l18 11c3-6 8-12 11-17z m-24 38c-3 7-6 13-9 19l19 9c3-6 6-13 10-18z m-18 40c-3 7-5 14-7 20l20 7c2-6 4-12 8-19z m-14 41c-4 13-5 22-5 22l21 4c0 0 3-8 6-20z"/>
<glyph unicode="&#61;" d="M153 0c-79 0-143 63-143 140 0 77 64 139 143 139 78 0 142-62 142-139 0-77-64-140-142-140z m0 258c-68 0-122-53-122-118 0-65 54-119 122-119 67 0 121 54 121 119 0 65-54 118-121 118z m236-232c-6 0-11 1-19 4-12 5-19 15-22 25-2 9-1 20 4 28l55 96-104 28c-10 2-19 7-25 16-18 26-65 60-104 84l-117-42c-13-6-29-4-41 5-12 8-17 22-16 36l19 116c3 21 24 37 47 33 12-1 21-7 29-16 6-8 8-18 7-27l-7-49 69 24c30 10 49 15 59 15 2 0 3 0 5 0 46-11 112-87 146-132l108-29c11-3 20-11 27-21l1-1c4-11 4-25-2-34l-81-140c-8-12-22-19-38-19z m-212 306l4-2c21-12 89-56 116-93 3-4 6-7 10-8l1 0 133-35-71-120c-3-6-2-10-2-12 1-5 5-9 11-12 3-1 6-2 10-2 8 0 15 3 17 7l81 141c3 5 3 10 2 15-4 6-9 10-13 11l-115 31-3 3c-41 54-102 117-135 125-3 0-15-1-51-14l-105-36 14 84c1 3 0 7-3 12-3 4-9 6-14 7-12 1-22-5-23-15l-20-115c-1-6 2-12 8-16 5-4 14-5 20-3z m8 67c-32 0-58 26-58 56 0 31 26 57 58 57 32 0 57-26 57-57 0-30-25-56-57-56z m0 92c-21 0-37-16-37-36 0-19 16-35 37-35 20 0 36 16 36 35 0 20-16 36-36 36z"/>
<glyph unicode="&#62;" d="M337 102l-148 0-190 176 18 132 473 0 22-123z m-140 22l132 0 162 169-18 95-437 0-14-101z m-1-10l-21 3c8 49 1 88-24 116-44 51-132 48-133 48l-1 21c4 0 98 4 150-55 29-33 39-76 29-133z m120 0c-10 56 0 100 29 133 51 59 146 55 150 55l-1-21c-1 0-89 3-133-47-25-28-32-67-24-116z"/>
<glyph unicode="&#63;" d="M448 29l-384 0c-35 0-64 29-64 64l0 261c0 35 29 64 64 64l384 0c35 0 64-29 64-64l0-261c0-35-29-64-64-64z m-384 368c-23 0-43-19-43-43l0-261c0-24 20-43 43-43l384 0c23 0 43 19 43 43l0 261c0 24-20 43-43 43z m192-289c-64 0-116 52-116 116 0 64 52 116 116 116 64 0 116-52 116-116 0-64-52-116-116-116z m0 211c-52 0-95-43-95-95 0-52 43-95 95-95 52 0 95 43 95 95 0 52-43 95-95 95z m-55-84l110 0 0-22-110 0z m44 44l22 0 0-110-22 0z m122 128l-21 0 0 38c0 9-8 17-17 17l-147 0c-9 0-17-8-17-17l0-38-21 0 0 38c0 21 17 38 38 38l147 0c21 0 38-17 38-38z"/>
<glyph unicode="&#64;" d="M256 16c-132 0-240 108-240 240 0 132 108 240 240 240 132 0 240-108 240-240 0-132-108-240-240-240z m0 459c-121 0-219-98-219-219 0-121 98-219 219-219 121 0 219 98 219 219 0 121-98 219-219 219z m-103-429l-13 17c1 1 116 92 105 192l-1 7 7 4c5 3 138 69 241-11l-13-17c-80 63-185 23-211 12 5-109-110-200-115-204z m89-28l-12 18c166 106 142 243 142 246l22 4c1-8 26-155-152-268z m9 229c-120 74-110 208-110 215l21-2c0-1-8-128 99-195z m-39-125c-173 91-149 274-149 275l21-3c-1-7-21-169 139-254z m252 209c-125 100-285 15-287 14l-11 19c3 1 174 93 311-16z"/>
<glyph unicode="&#91;" d="M378 15c-7 0-12 1-17 4-102 52-126 140-133 175-1 5 3 12 9 13 6 1 12-3 13-9 6-39 32-114 120-160 9-4 18-1 21 7 0 0 0 1 2 1 2 3 2 6 1 9-1 5-5 8-8 10-83 43-102 116-105 147-2 6 3 12 9 12 7 1 12-3 12-10 4-33 23-93 95-130 9-4 16-13 19-22 2-10 1-18-3-27-9-13-22-20-35-20z m-224 384c-31 0-57 26-57 56 0 31 26 57 57 57 31 0 56-26 56-57 0-30-25-56-56-56z m0 92c-20 0-36-16-36-36 0-19 16-35 36-35 19 0 35 16 35 35 0 20-16 36-35 36z m119-181c-52 0-94 42-94 94 0 53 42 94 94 94 52 0 94-41 94-94 0-52-42-94-94-94z m0 167c-39 0-72-33-72-73 0-39 33-72 72-72 41 0 73 33 73 72 0 40-33 73-73 73z m0-116c-24 0-44 19-44 43 0 25 20 44 44 44 25 0 44-19 44-44 0-24-19-43-44-43z m0 66c-13 0-22-10-22-23 0-13 9-22 22-22 13 0 22 9 22 22 0 13-9 23-22 23z m-62-428c-8 0-18 3-24 8-65 52-93 104-80 153 9 38 51 83 86 105-10 53 2 92 3 94 2 6 8 9 13 8 5-2 9-8 8-13 0 0-12-39-2-92 2-4-1-9-5-11-32-16-73-60-82-95-10-41 15-85 74-131 3-4 7-5 11-5 6 0 12 3 16 8 2 3 5 8 4 13 0 5-4 9-8 12-45 37-65 69-60 93 10 42 87 66 113 73 3 1 5 2 6 2 0 0 1 0 1 0 0 0 14 6 15 25 1 6-1 14-2 23-5 20-9 46 6 67 3 4 11 5 15 2 4-3 5-11 2-15-10-13-6-32-3-50 2-10 4-19 3-28-2-31-24-41-29-43-2-1-5-3-8-4 0 0-1 0-1 0-37-7-92-32-97-55-4-15 17-42 53-72 8-7 14-17 15-26 1-11-2-22-10-30-10-11-22-16-33-16z m54 256c-9 0-18 2-25 7-32 22-43 83-44 89-1 5 3 12 9 12 5 1 12-4 12-9 2-16 13-61 35-75 5-4 11-5 18-3 7 2 13 6 16 11 6 12 4 29 2 35-1 5 2 12 7 13 6 1 12-2 13-8 0-1 9-29-4-51-6-10-16-17-29-20-3-1-6-1-10-1z"/>
<glyph unicode="&#93;" d="M338 207c-6 0-13 4-15 11-2 5-10 24-65 24-2 0-3 0-5 0-45-1-60-22-61-23-2-2-4-5-7-5-4-1-7-1-9-1-35 0-75 32-101 54l-7 5c-27 22-54 63-39 108 21 67 86 75 141 75 13 0 27-1 40-1 7 0 12 0 17-1 18-1 39-1 65-1 11 0 23 0 33 0 11 0 22 0 31 0l8 0c35 0 80 0 107-37 20-25 25-52 18-80-14-51-72-95-119-113-2-1-5-3-8-5-9-6-16-10-24-10z m-81 55c44 0 72-10 83-34 3 1 7 3 10 6 4 2 8 5 12 6 43 17 93 57 105 99 7 22 1 42-13 62-20 27-50 29-90 29l-8 0c-10 0-20 0-31 0-10 0-22 0-33 0-26 0-47 0-66 1-5 0-11 0-17 1-13 1-26 1-39 1-71 0-107-18-121-61-11-34 11-67 33-84l7-5c22-18 60-48 88-48 0 0 1 0 1 0 9 8 31 27 75 27 1 0 3 0 4 0z m-159-114c-2 0-4 0-5 1-20 13-70 44-75 64-4 20 4 110 5 128 0 6 6 11 12 10 7-1 11-5 10-12-3-40-9-108-6-120 3-8 32-31 64-52 6-3 7-9 4-14-1-3-6-5-9-5z m303 3c-4 0-8 3-10 7-2 5 0 12 6 14 34 15 74 38 80 49 5 13-1 69-8 105-1 6 4 12 9 13 5 1 12-3 13-8 3-16 16-95 5-119-11-23-78-54-91-59-1-2-3-2-4-2z m59-92c-46 1-157 75-170 84-14 8-30 18-44 27-52-49-191-103-196-105-2-1-5-1-7 0-20 8-38 46-41 53-1 4-1 8 1 11 2 3 6 5 9 5 22 0 119 55 175 89 3 2 7 2 10 0 1 0 61-33 106-62 32-21 118-76 154-80 10 9 24 22 32 34l-165 67c-5 3-8 9-5 14 2 6 8 9 14 6l175-72c5-2 7-7 6-13-7-24-43-53-46-56-4-1-6-2-8-2z m-433 56c6-12 15-23 20-29 24 10 133 55 180 94-16 9-29 16-35 21-31-19-121-73-165-86z m258 36c-1 0-3 0-4 2-6 2-9 8-7 13 14 35-9 74-9 74-4 5-2 12 3 15 5 3 11 1 15-3 1-2 28-49 11-93-1-5-5-8-9-8z m-33-41c-35 0-64 18-66 19-6 3-7 10-4 15 4 5 10 6 15 3 2-1 57-35 98-1 32 26 29 64 28 65-1 6 3 11 10 12 5 1 10-3 12-10 0-2 5-51-37-84-18-14-38-19-56-19z m190 159c-5 0-9 3-11 7-4 9-65 79-178 79-114 0-175-68-175-69-4-4-11-5-15-1-4 4-5 10-1 15 3 3 67 75 192 75 124 0 194-77 199-93 2-6-1-12-7-13-2 0-3 0-4 0z"/>
<glyph unicode="&#94;" d="M428 16c-3 0-6 0-9 1l-29 9c-7 2-13 7-17 13-4 8-5 15-2 23l28 94c-10 10-14 21-11 31 5 11 14 18 29 20 6 17 21 28 40 28 4 0 8-1 12-2 11-4 21-11 26-21 5-8 6-19 4-29 11-9 16-21 13-32-4-13-17-18-27-20l-27-94c-6-12-17-21-30-21z m7 181l0-8-9-1c-5 0-16-2-17-8 0 0 1-5 9-13l5-4-32-106c-1-3 0-5 2-6 1-2 3-3 5-4l29-9c1 0 1 0 2 0 3 0 7 4 8 7l32 106 7 2c11 2 16 4 16 6 1 3-3 10-11 14l-12 7 8 8 0 2c3 12-2 22-14 25-11 4-22-2-26-13-1-3-2-4-2-5z m-141-179c-12 0-24 9-28 20l-32 92c-20 3-26 14-27 19-3 11 1 23 12 33-4 10-2 21 2 30 5 11 14 17 24 22 5 2 10 2 15 2 17 0 32-11 39-27 14-2 23-8 28-19l0-1c3-8 3-18-9-30l32-92c5-16-3-33-18-38l-28-10c-3 0-6-1-10-1z m-53 167c1-2 1-4 1-6l0-5-4-3c-8-6-11-12-11-16 0-1 4-5 15-5l7-1 36-104c1-4 6-7 12-6l27 10c5 1 7 6 6 12l-37 104 6 5c6 6 8 10 8 12-2 4-7 6-16 6l-10 0 0 8c0 1-2 2-2 3-4 11-14 15-26 12-6-2-10-5-13-10-2-6-3-11-1-18z m-7 34c-1 5-3 9-4 14l21 7c2-6 3-12 5-18z m-132 19c-9 0-19 2-28 5l7 20c9-3 17-5 26-4l2-21c-1 0-3 0-7 0z m43 15l-7 7-7 9c11 8 20 14 31 17l8-20c-9-3-16-7-25-13z m72 3c-7 6-14 11-22 13l4 21c13-2 24-8 34-18z m-173 6c-9 8-16 16-23 27l18 12c6-9 12-16 20-22z m409 11c0 11-1 20-3 30l21 3c3-11 4-22 4-33z m-447 47c-4 11-6 22-6 34l21 1c0-9 2-19 6-28z m438 13c-3 9-7 19-11 28l19 9c5-9 9-20 12-31z m-418 49l-21 6c4 11 9 22 16 31l17-13c-6-6-10-15-12-24z m392 5c-5 9-12 16-19 24l15 15c7-9 15-17 21-26z m-360 41l-13 17c8 6 18 13 29 18l9-19c-9-5-18-10-25-16z m319 2c-8 6-16 12-26 16l10 19c9-5 19-11 28-18z m-266 25l-6 21c9 3 20 6 32 8l4-21c-11-2-20-4-30-8z m212 3c-9 3-19 6-29 8l5 21c10-2 21-5 32-8z m-152 10l-4 22c11 1 22 2 32 3l2-22c-9 0-20-1-30-3z m92 3c-9 2-20 3-30 3l0 21c10 0 22-1 33-2z m208-248l-21 4c0 2 1 4 1 8 0 3 1 6 1 9l22-4c0-2-1-4-1-7 0-4-2-7-2-10z"/>
<glyph unicode="&#95;" d="M256 0c-141 0-256 115-256 256 0 141 115 256 256 256 141 0 256-115 256-256 0-141-115-256-256-256z m0 491c-129 0-235-106-235-235 0-129 106-235 235-235 129 0 235 106 235 235 0 129-106 235-235 235z m-96-218c-3 0-7 2-10 5l-41 71c-2 4-2 9 1 13l64 70c3 3 7 4 11 3l84-25c5-1 8-7 7-12l-10-90c0-4-4-7-8-8l-96-26c0-1-1-1-2-1z m-29 80l33-56 81 21 9 73-69 22z m72-308c0 0-1 0-1 0l-85 10c-4 0-7 4-8 8l-31 85c-2 6 0 11 5 13l54 29c4 2 8 1 11-1l75-66c3-2 4-7 3-11l-13-59c-1-5-5-8-10-8z m-77 31l68-9 10 43-64 56-39-21z m256 22c-2 0-4 1-7 2l-62 42c-4 2-6 6-5 11l14 97c1 4 4 8 9 8l84 17c5 1 11-2 12-7l28-87c2-3 0-7-2-10l-64-70c-2-2-4-3-7-3z m-51 58l50-33 53 57-23 72-68-14z m102 187c-3 0-5 2-7 4l-76 74c-2 2-3 5-3 8l0 50 21 0 0-46 68-67 39 6 3-21-44-8c0 0 0 0-1 0z m-316 22l2-21-92-11-2 21z m-98-128l77-78-15-15-77 78z m131 49l21-4-20-104-21 4z m165-126l8-20-104-41-8 20z m-52 157l76-61-13-17-76 62z m159 39l21-3-16-90-21 4z m-68 82l7-20-90-29-7 20z m-173 50l12-61-21-4-12 61z m190-378l21-2-5-66-22 2z m75 79l43 0 0-22-43 0z m-235-126l38-45-17-14-38 45z"/>
<glyph unicode="&#96;" d="M38 78l-10 0c-16 0-28 12-28 28l0 300c0 16 12 28 28 28l455 0c16 0 29-12 29-28l0-299c0-16-12-28-28-28l-446 0z m-13 22l459 0c3 0 7 3 7 7l0 299c0 5-4 7-8 7l-455 0c-3 0-7-3-7-7l0-300c0-3 1-5 4-6z m43 288c0-9-7-17-17-17-9 0-17 8-17 17 0 10 8 17 17 17 10 0 17-7 17-17z m205 0c0-9-8-17-17-17-9 0-17 8-17 17 0 10 8 17 17 17 9 0 17-7 17-17z m205 0c0-9-8-17-17-17-10 0-17 8-17 17 0 10 7 17 17 17 9 0 17-7 17-17z m-410-264c0-10-7-17-17-17-9 0-17 7-17 17 0 9 8 17 17 17 10 0 17-8 17-17z m205 0c0-10-8-17-17-17-9 0-17 7-17 17 0 9 8 17 17 17 9 0 17-8 17-17z m205 0c0-10-8-17-17-17-10 0-17 7-17 17 0 9 7 17 17 17 9 0 17-8 17-17z m-352 71c-9 0-17 7-17 19l0 93c0 13 8 19 17 19 4 0 8-2 13-5l58-44c6-3 9-9 9-16 0-7-3-14-9-19l-58-43c-5-3-9-4-13-4z m4 107l0-82 55 40c0 0 0 1 0 1z m289 24l11-18-217-138-12 18z"/>
<glyph unicode="&#123;" d="M355 0l-198 0c-46 0-86 39-86 85l0 342c0 46 40 85 86 85l198 0c46 0 86-39 86-85l0-342c0-46-40-85-86-85z m-198 491c-35 0-64-29-64-64l0-342c0-35 29-64 64-64l198 0c35 0 64 29 64 64l0 342c0 35-29 64-64 64z m150-310c-20 0-38 8-51 22-13-14-31-22-51-22-39 0-72 33-72 72 0 35 23 51 47 70 22 16 46 35 66 71 3 3 6 5 10 5 4 0 7-2 10-5 19-35 44-55 66-72 25-20 47-37 47-69 0-41-31-72-72-72z m-51 49c3 0 7-2 9-5 8-14 24-22 42-22 28 0 50 22 50 50 0 20-14 32-39 52-19 15-43 34-62 63-20-30-44-47-63-62-23-17-38-29-38-53 0-27 23-50 50-50 17 0 33 8 42 22 2 3 6 5 9 5z m48-117l-96 0c-5 0-10 3-11 9-1 5 1 9 7 11 0 0 34 16 41 53 1 5 6 8 11 8 5 0 10-3 11-8 8-38 41-53 41-53 5-2 8-7 7-11-1-6-6-9-11-9z m-63 21l31 0c-5 6-11 12-15 21-5-9-11-15-16-21z"/>
<glyph unicode="&#124;" d="M355 0l-198 0c-46 0-86 39-86 85l0 342c0 46 40 85 86 85l198 0c46 0 86-39 86-85l0-342c0-46-40-85-86-85z m-198 491c-35 0-64-29-64-64l0-342c0-35 29-64 64-64l198 0c35 0 64 29 64 64l0 342c0 35-29 64-64 64z m99-363c-3 0-6 1-9 4l-96 118c-3 4-3 9 0 13l96 118c5 5 13 5 16 0l96-118c4-4 4-9 0-13l-96-118c-1-3-4-4-7-4z m-82 128l82-100 82 100-82 100z"/>
<glyph unicode="&#125;" d="M461 0l-410 0c-28 0-51 23-51 51 0 28 23 51 51 51l410 0c28 0 51-23 51-51 0-28-23-51-51-51z m-410 81c-16 0-30-14-30-30 0-16 14-30 30-30l410 0c16 0 30 14 30 30 0 16-14 30-30 30z m100-52c-14 16-6 36 0 44l18-13c-2-1-7-10-2-16z m117 1l-17 13 8-7-8 7c1 1 6 9 1 16l16 15c14-16 6-37 0-44z m-173 151c-17 0-33 9-43 24-7 12-10 25-7 38 3 13 10 25 22 33l339 227c9 6 19 9 29 9 17 0 33-9 43-23 16-24 9-55-14-72l-341-227c-9-5-18-9-28-9z m340 311c-5 0-12-2-17-6l-339-227c-8-4-12-12-14-19-2-7 0-16 4-22 10-14 28-19 42-9l341 227c14 10 17 28 8 42-6 8-14 14-25 14z m-244-222c-22 6-26 27-25 37l22-2-11 1 11-1c0-3 0-12 9-14z m96 65l-21 2 10-1-10 1c0 3 0 12-10 14l5 20c23-5 27-26 26-36z"/>
<glyph unicode="&#126;" d="M308 178c-36 0-70 13-94 36-27 28-40 69-35 113 6 44 27 87 61 121 39 39 91 62 140 62 36 0 70-13 94-36 27-28 40-69 35-113-6-44-27-87-61-121-38-38-90-62-140-62z m73 312c-44 0-90-21-125-56-31-31-50-69-55-109-5-38 6-71 29-95 21-20 47-31 79-31 44 0 90 21 125 57 31 31 50 69 56 109 4 38-7 71-30 95-21 19-47 30-79 30z m-327-493l-57 57 121 122c42 42 62 110 62 111l21-6c-2-4-23-75-69-120l-106-107 27-27 107 106c45 45 116 68 119 69l7-21c-1 0-69-21-111-62z m290 506l158-158-15-15-158 158z m-65-37l191-191-15-15-191 191z m-51-53l186-186-15-15-186 186z m232 61l15-15-245-243-15 15z m-72 35l15-15-206-207-15 15z m104-112l15-15-201-201-15 15z m-292-59l140-139-16-15-139 139z"/>
<glyph unicode="&#92;" d="M256 205c-84 0-154 69-154 153 0 85 70 154 154 154 84 0 154-69 154-154 0-84-70-153-154-153z m0 286c-73 0-132-60-132-133 0-72 59-132 132-132 73 0 132 60 132 132 0 73-59 133-132 133z m0-222c-49 0-90 40-90 89 0 49 41 90 90 90 49 0 90-41 90-90 0-49-41-89-90-89z m0 158c-37 0-68-31-68-69 0-37 31-68 68-68 37 0 68 31 68 68 0 38-31 69-68 69z m-161-427c-1 0-2 0-3 1-5 1-8 5-8 11l3 115-76 0c-5 0-8 2-10 6-2 4-1 9 1 12l117 143c5 4 11 5 15 1 5-4 6-11 1-15l-102-127 65 0c3 0 5-1 8-3 2-2 3-5 3-7l-2-94 140 181c4 4 11 5 15 2 5-3 6-11 3-15l-162-207c-2-3-5-4-8-4z m322 0c-3 0-6 1-8 4l-157 205c-3 4-3 12 2 15 4 3 12 3 15-2l136-178-2 93c0 3 1 5 3 7 3 2 5 3 8 3l65 0-104 126c-4 4-3 12 2 15 4 4 11 3 14-1l118-143c2-3 3-7 1-12-2-3-5-6-10-6l-77 0 5-115c0-5-3-9-8-11-1 0-2 0-3 0z"/>
<glyph unicode="&#57344;" d="M370 0c-35 0-63 7-83 21-3 2-4 6-4 9l0 48c0 3 2 6 4 8l24 17 0 12-8 0c-3 0-5 1-8 3-2 3-3 6-3 8l1 24-20 7c-4 1-7 4-7 8 0 5 1 9 5 11 0 0 22 14 28 38 4 16-1 35-14 54-19 29-20 63-2 96 20 38 63 68 98 68l2 0c2 0 5-1 6-3 5-3 21-19 22-35 22-8 75-28 92-61 6-11 7-22 5-32 1-7 1-19-6-27-3-4-8-6-13-6-8 0-16 4-26 13-2 0-4 0-8 0-18 0-28-3-33-4 0 0 0 0 1-1 5-4 12-9 21-15 27-18 66-43 67-82 1-23-12-47-40-70l21-22c2-2 3-4 3-7l0-50c0-4-3-9-8-11-1 0-59-19-117-19z m-66 35c16-9 38-14 66-14 43 0 88 12 105 16l0 39-25 26c-2 3-3 6-3 9 0 3 2 5 4 7 28 23 41 43 41 61-1 27-34 49-58 65-9 7-18 12-23 17-11 10-11 18-9 24 3 7 13 17 56 17 7 0 11 0 11 0 2 0 6-1 7-3 6-6 10-9 13-10 0 3 0 6 0 11 0 2 0 3 0 5 2 6 1 12-3 18-13 27-69 47-89 52-3 2-6 4-8 7-1 3-1 6 1 9 1 4-5 12-11 20-27-1-61-27-77-57-10-18-17-46 1-75 16-24 21-48 16-70-4-17-13-29-21-37l8-3c4-2 8-6 8-11l-1-23 8 0c5 0 11-4 11-10l1-28c0-3-2-7-4-10l-26-17 0-35z m-192 409c-19 0-34 15-34 34 0 19 15 34 34 34 19 0 34-15 34-34 0-19-15-34-34-34z m0 47c-7 0-13-6-13-13 0-8 6-13 13-13 7 0 13 5 13 13 0 7-6 13-13 13z m4-491l-6 0c-19 0-83 2-108 34-1 2-2 4-2 7l0 42c0 3 1 7 4 9 1 0 64 49 77 145-28 6-46 21-46 38 0 9 4 23 28 33-12 17-19 41-19 65 0 52 31 93 68 93 38 0 68-40 68-93 0-25-7-48-19-65 18-7 28-19 28-33 0-17-17-32-46-38 14-94 74-141 78-144 3-2 5-6 5-10l0-42c0-3-1-5-2-7-25-32-89-34-108-34z m-95 45c17-18 63-24 89-24l6 0c26 0 72 6 89 24l0 34c-24 18-75 75-84 165-2 6 3 11 8 12 26 4 38 14 38 19 0 4-8 13-27 17-5 1-7 5-8 8-1 3 0 7 3 10 15 13 25 37 25 62 0 40-21 72-47 72-26 0-47-33-47-72 0-26 10-50 24-62 3-2 4-6 3-10-1-5-4-8-8-9-19-5-27-12-27-17 0-5 12-15 38-19 5-1 10-6 9-12-11-97-68-151-84-165z"/>
<glyph unicode="&#57345;" d="M258 0c-82 0-149 67-149 149 0 48 22 76 47 105 8 9 16 20 24 31 7 9 15 51 18 74l1 9 115 0 1-10c3-24 11-65 18-73 8-13 18-24 26-34 24-29 46-56 47-103 1-81-66-148-148-148z m-39 348c-4-19-11-60-21-75-8-13-17-22-25-33-24-29-42-51-42-92 0-70 58-128 128-128 71 0 128 58 128 128-1 40-19 61-42 89-9 10-19 22-28 35-11 14-18 54-20 75l-78 0z m37 32c-27 0-49 22-49 49 0 26 22 49 49 49 27 0 49-23 49-49 0-27-22-49-49-49z m0 77c-15 0-28-13-28-28 0-15 13-28 28-28 15 0 28 13 28 28 0 15-13 28-28 28z m-11 44l22 0 0-34-22 0z m0-112l22 0 0-378-22 0z"/>
<glyph unicode="&#57346;" d="M178 94l323 0 0-21-323 0z m-167 0l118 0 0-21-118 0z m155-59c-7 0-17 4-23 11-83 87-64 184-57 212l1 2 5 8 47 63c6 6 14 10 21 11 50 6 48 90 48 101 0 18 14 33 31 35 18 2 33-12 35-30 2-48-9-113-51-147l37-28 57 61c4 4 8 6 13 8l107 44c18 7 37-2 43-19 3-9 3-17-1-26-3-8-10-14-18-17l-102-40-70-76 180-18c20-1 31-19 31-34-1-18-16-31-33-31l-2 0-228 22c-10 1-19 7-24 14l-68 53c-2-26 1-76 45-123 12-14 12-34-1-47-7-6-14-9-23-9z m-59 217c-8-26-25-113 51-191 2-2 6-4 8-4 4 0 6 1 8 3 5 5 5 13 1 17-65 68-51 145-47 160l4 16 99-78 2-2c1-2 5-6 9-6l227-22 1 0c7 0 12 4 12 11 0 4-4 11-12 11l-211 22 9 23 82 89 105 42c5 2 6 5 7 7 1 3 1 6 0 9-2 6-9 9-15 7l-109-44c-2-1-4-2-5-3l-70-75-76 57 14 8c45 28 55 100 53 137 0 5-5 11-11 11-7-2-13-7-13-13 3-53-13-117-66-122-3 0-6-2-8-5z m-30 42c-30 0-54 24-54 54 0 30 24 53 54 53 30 0 53-23 53-53 0-30-23-54-53-54z m0 86c-18 0-32-14-32-32 0-18 14-32 32-32 18 0 32 14 32 32 0 18-14 32-32 32z"/>
<glyph unicode="&#57347;" d="M130 0c-18 0-41 12-61 32-23 25-37 57-36 89 1 28 2 43 5 51-5 40-20 194 54 280 35 40 83 60 145 60 73 0 131-23 173-69 82-92 68-239 67-246l0-2-2-3c-16-23-33-53-34-61l-2-5-218-113-3 0c0 0-4 0-8 0-13 0-46-1-65-10-4-2-10-3-15-3z m-71 163c0-1-2-7-4-45-1-25 11-52 30-72 21-21 43-28 52-24 23 11 56 12 73 12 2 0 4 0 5 0l205 107c7 17 27 48 35 62 2 19 9 148-61 227-38 39-90 61-157 61-55 0-98-18-128-54-75-87-50-251-47-271 0-1 0-2 0-2l-20-3c1-2 4-4 8-4 4 0 9 4 9 6z m231 211c-7 0-16 1-22 5-8 3-13 9-16 17-1 3-2 5-2 7-4 1-14 0-26-1-14-1-27-6-39-12-6-2-12-4-18-6-24-9-80-14-101 14l17 13c13-15 56-13 78-6 5 2 11 5 16 7 14 5 29 10 45 13 13 2 30 3 38-2 9-5 11-10 11-16 0-1 0-2 1-3 1-2 2-4 5-5 11-5 37 0 50 5 5 2 9 3 14 6 20 7 42 17 53 31l17-13c-14-19-41-30-62-39-4-2-10-4-13-5-1 0-23-10-46-10z m-241-241l0 22c34 0 67 0 99 3 81 9 141 33 178 71 17 17 30 39 41 66 7 20 13 53 0 63-10 10-21 6-42-8l-5-3c-21-14-45-20-67-25-7-1-13-3-19-4-35-9-61-10-92-10-16 0-32 1-47 2-15 1-30 3-46 3l0 21c16 0 32-1 47-2 15-1 30-2 46-2 34 0 59 2 86 9 7 2 13 3 19 4 22 6 42 10 60 22l6 3c17 11 44 29 68 6 23-20 14-65 5-86-11-31-25-54-45-74-40-41-104-67-191-77-34-4-66-4-101-4z m52-120l-6 19c2 1 205 73 366 203l14-17c-165-132-372-205-374-205z"/>
<glyph unicode="&#57348;" d="M449 43l-386 0c-35 0-63 27-63 63l0 211c0 35 28 63 63 63l386 0c35 0 63-28 63-63l0-211c0-36-28-63-63-63z m-386 315c-24 0-42-18-42-41l0-211c0-24 18-42 42-42l386 0c24 0 42 19 42 42l0 211c0 23-20 41-42 41z m-52 111l490 0 0-21-490 0z m388-10l21 0 0-64-21 0z m-307 0l21 0 0-64-21 0z m307-120l21 0 0-23-21 0z m-307 0l21 0 0-23-21 0z m2-103l-28-15-4 16 34 19 18 0 0-157-20 0z m80-40c0 9 6 15 15 15 8 0 14-6 14-15 0-8-6-15-15-15-9 0-14 7-14 15z m0-85c0 8 6 15 15 15 8 0 14-7 14-15 0-9-6-15-15-15-9 0-14 6-14 15z m152 68c0-53-20-83-54-83-31 0-51 29-52 81 0 52 22 82 54 82 33-1 52-30 52-80z m-85-3c0-41 13-64 32-64 21 0 32 26 32 65 0 38-10 64-32 64-19 1-32-22-32-65z m209 3c0-53-20-83-54-83-31 0-51 29-53 81 0 52 23 82 55 82 33-1 52-30 52-80z m-85-3c0-41 13-64 32-64 21 0 32 26 32 65 0 38-10 64-32 64-18 1-32-22-32-65z"/>
<glyph unicode="&#57349;" d="M306 160c-72 0-146 20-200 57-4 2-6 5-5 9 6 119 96 211 205 211 110 0 201-92 206-212 0-4-2-7-4-10-55-35-128-55-202-55z m-183 70c50-31 116-49 183-49 67 0 135 18 185 49-9 105-89 186-185 186-96 0-175-81-183-186z m217-57c-2 142-38 238-70 238l0 21c57 0 89-130 92-259z m-200-99c-26 0-53 4-78 13-42 15-62 34-62 56 0 46 91 80 108 86l7-20c-38-14-94-44-94-66 0-12 17-25 47-36 138-50 280 72 281 73l14-16c-5-4-105-90-223-90z"/>
<glyph unicode="&#57350;" d="M497 127l-186 0 0 50c-6 9-21 32-17 54 3 12 11 22 23 29 26 15 48 76 52 114-19 12-30 32-30 55 0 36 28 64 64 64 36 0 64-28 64-64 0-23-12-43-30-55 5-38 26-98 53-114 10-6 18-15 21-25 6-23-8-46-14-56 0 0 0 0 0-1z m-164 21l143 0 0 31c-1 4 1 8 3 11 4 7 15 25 12 39-1 6-6 10-12 13-38 21-62 100-64 138l0 7 6 3c15 8 25 23 25 39 0 23-19 42-43 42-23 0-42-19-42-42 0-16 9-31 24-39l6-3 0-7c-2-38-25-117-64-138-6-3-10-8-11-14-3-15 9-34 15-40l2-3z m-34-136l-298 0 0 74c-4 20 0 60 47 83 23 10 42 75 48 172-23 10-39 32-39 58l0 42 186 0 0-43c0-26-16-49-39-58 4-75 20-159 48-173 56-26 48-75 47-81z m-277 21l255 0 0 66 1 0c0 12-5 35-35 49-49 24-58 158-61 200l0 8 9 2c18 5 31 21 31 40l0 21-144 0 0-20c0-19 13-35 31-40l8-2 0-9c-7-117-27-183-60-199-44-21-36-57-36-58l0-58z m36 457l21 0 0-60-21 0z m163 0l21 0 0-60-21 0z m-81 0l21 0 0-60-21 0z"/>
<glyph unicode="&#57351;" d="M256 43c-117 0-213 96-213 213 0 117 96 213 213 213 117 0 213-96 213-213 0-117-96-213-213-213z m0 405c-106 0-192-86-192-192 0-106 86-192 192-192 106 0 192 86 192 192 0 106-86 192-192 192z m0-351c-87 0-159 72-159 159 0 87 72 159 159 159 87 0 159-72 159-159 0-87-72-159-159-159z m0 297c-76 0-138-62-138-138 0-76 62-138 138-138 76 0 138 62 138 138 0 76-62 138-138 138z m0-235c-53 0-97 44-97 97 0 53 44 97 97 97 53 0 97-44 97-97 0-53-44-97-97-97z m0 173c-42 0-76-34-76-76 0-42 34-76 76-76 42 0 76 34 76 76 0 42-34 76-76 76z m-11 169l22 0 0-490-22 0z m-234-234l490 0 0-22-490 0z"/>
<glyph unicode="&#57352;" d="M256 0c-141 0-256 115-256 256 0 141 115 256 256 256 141 0 256-115 256-256 0-141-115-256-256-256z m0 491c-129 0-235-106-235-235 0-129 106-235 235-235 129 0 235 106 235 235 0 129-106 235-235 235z m0-407c-95 0-172 77-172 172 0 95 77 172 172 172 31 0 62-9 92-26l-11-18c-27 15-53 23-81 23-83-1-150-68-150-151 0-83 67-150 150-150 83 0 150 67 150 150 0 26-6 51-19 74l19 10c14-26 22-54 22-84 0-95-77-172-172-172z m0 98c-41 0-74 33-74 74 0 41 33 74 74 74 41 0 74-33 74-74 0-41-33-74-74-74z m0 126c-29 0-52-23-52-52 0-29 23-52 52-52 29 0 52 23 52 52 0 29-23 52-52 52z m0-63c-3 0-5 1-7 4-5 4-5 10 0 14l64 61c4 5 10 5 14 0 5-4 5-10 0-15l-64-60c-2-3-5-4-7-4z m63 58l-12 15 18 69 69 64-1-66 67-1-70-65z m26 72l-13-48 48 11 26 25-35 1 1 36z"/>
<glyph unicode="&#57353;" d="M246 1c-51 0-101 45-123 115-1 3-2 7-4 11-1 4-3 8-3 12l21 5c0-2 2-6 3-10 1-4 3-8 3-11 21-63 68-106 113-100 7 2 14 4 20 7 10 3 21 7 35 7 15 0 26-4 36-7 6-2 12-5 20-7 55-7 111 57 124 143 7 58-6 116-33 148-14 16-29 23-46 23-35 0-46-6-57-13-9-5-19-11-44-11-23 0-33 6-41 11-10 7-19 13-58 13-29 0-54-23-70-66l-20 7c19 51 52 79 89 79 45 0 58-8 70-16 7-5 12-8 29-8 17 0 24 3 32 8 12 8 26 16 68 16 23 0 44-10 61-31 32-36 47-101 39-164-14-98-80-169-147-161-10 1-18 4-25 8-8 3-16 6-28 6-11 0-18-3-27-6-7-4-15-6-25-8-3 1-7 0-12 0z m75 319l-21 1c6 88-54 131-55 131l13 17c2-1 69-49 63-149z m44 61c-12 0-24 2-36 5l-7 2-2 7c0 2-6 49 22 83 25 29 65 39 122 32l11-1-1-11c-4-40-31-117-109-117z m-25 23c9-2 16-2 24-2 64 0 81 63 86 88-43 3-73-6-92-26-17-20-18-47-18-60z m-95-359l-212 147c-1 1-28 19-32 46-2 14 1 27 10 39 9 13 17 27 25 40 16 24 29 46 44 61l1 1c4 3 41 26 117-27l-11-17c-59 40-88 29-92 27-2-3-5-6-8-9l2-1c-7-10-4-36 49-73 76-53 173-120 173-120l9-6z m-178 280c-4-6-8-12-13-20-8-13-17-27-26-39-6-8-8-15-6-24 4-18 24-32 24-32l193-135 50 72c-26 18-102 71-165 114-31 22-50 43-57 64z m12-20l17-13-27-38-18 13z m40-32l18-13-28-39-17 12z m40-29l18-12-27-39-17 12z m42-29l18-12-28-39-17 12z m42-29l17-12-27-38-18 12z"/>
<glyph unicode="&#57354;" d="M258 386c-35 0-63 28-63 63 0 35 28 63 63 63 35 0 63-28 63-63 0-35-28-63-63-63z m0 105c-23 0-41-18-41-42 0-23 18-42 41-42 24 0 42 19 42 42 0 24-18 42-42 42z m-46-491c-4 0-7 1-11 3-15 7-23 24-18 40 3 6 15 62 25 98 1 6 4 10 10 16l53 46-11 21c-2 0-3 0-5 0-5 0-12-1-18-1-54 0-93 11-120 31-12 9-16 28-6 41 2 4 52 77 138 77 17 0 30-2 42-6l1-1 6-3c13-5 25-16 31-30l38-93c2-3 3-8 4-11l119-133c5-6 8-15 7-24-1-7-5-14-11-20-5-5-12-7-20-7-8 0-17 4-23 10l-105 117-1 0c-2-1-3-1-5-2l-65-53c-24-94-24-95-26-98-6-12-17-18-29-18z m56 245l7 0 17-42 3-8-65-55c-2-2-2-3-3-6-7-31-22-91-24-99-1-4 0-10 4-13 1 0 3-1 4-1 4 0 8 2 10 7 1 2 7 26 24 96l1 3 74 65 4 0c1 0 1 0 3 1l2 0c1 0 2 1 2 1l7 8 8-9 109-123c3-2 5-3 8-3 2 0 4 0 6 2 5 4 6 10 2 14l-122 139 0 4c0 1 0 3-1 4l-1 3-38 93c-3 9-9 15-18 17l-2 2-5 3c-10 3-22 4-35 4-75 0-120-67-121-68-3-5-2-11 2-13 23-18 59-27 107-27 6 0 12 0 17 1 5 0 9 0 14 0z m-31 21c-30 0-54 3-73 10l-15 6 12 11c13 13 41 36 77 40l14 1-2-14c-1-6 0-13 2-16l14-33-11-3c-5-2-12-2-18-2z m-46 25c13-2 28-4 45-4l-5 10c-1 4-2 8-3 12-15-3-27-10-37-18z m-68-3c-4 0-8 2-10 5l-97 170c-2 5-1 12 4 15 6 2 12 1 15-4l97-170c3-5 1-12-4-15-2-1-3-1-5-1z"/>
<glyph unicode="&#57355;" d="M256-1l-208 110 0 369 416 0 0-369z m-187 123l187-100 187 100 0 335-374 0z m-58 390l490 0 0-21-490 0z m175-205c-6-2-15-4-27-4-13 0-24 3-32 12-8 7-12 19-12 32 0 25 18 44 47 44 10 0 18-2 21-4l-3-9c-4 2-10 3-19 3-21 0-35-13-35-35 0-23 13-36 33-36 7 0 13 1 15 3l0 25-17 0 0 9 29 0z m90 40c0-30-18-46-40-46-23 0-39 18-39 44 0 27 17 44 41 44 23 1 38-17 38-42z m-67-1c0-19 10-36 28-36 18 0 28 16 28 37 0 17-9 35-28 35-18 0-28-17-28-36z m81 43l11 0 0-76 37 0 0-10-48 0z m61 0l47 0 0-9-35 0 0-29 32 0 0-10-33 0 0-39-11 0z m-165-210c-5-2-13-4-23-4-24 0-42 15-42 44 0 26 18 44 44 44 11 0 17-2 21-4l-4-9c-4 2-10 3-17 3-20 0-34-13-34-35 0-22 12-36 33-36 7 0 14 1 18 4z m13 83l11 0 0-76 37 0 0-10-48 0z m68 0l0-51c0-19 8-28 20-28 13 0 21 9 21 28l0 51 12 0 0-50c0-26-14-37-33-37-18 0-31 10-31 37l0 51z m71-1c5 1 13 2 20 2 11 0 19-2 24-6 4-3 7-8 7-15 0-8-5-16-15-19 9-2 19-9 19-21 0-8-4-13-8-17-6-6-16-9-30-9-7 0-14 0-17 1 0 0 0 84 0 84z m12-35l9 0c12 0 20 7 20 15 0 10-8 14-20 14-5 0-8 0-9-1z m0-41c2 0 5 0 9 0 12 0 23 4 23 17 0 11-10 17-23 17l-9 0z"/>
<glyph unicode="&#57356;" d="M25 0c-9 0-15 3-20 9-10 10-7 34 9 51l101 101c4 4 11 4 15 0 4-4 4-11 0-15l-101-101c-10-11-10-20-9-23 2-1 3-1 5-1 4 0 11 4 19 10l101 101c4 5 11 5 15 0 4-4 4-10 0-15l-101-101c-10-11-23-16-34-16z m375 361c-3 0-5 1-7 3-5 4-5 10 0 15l32 32c9 10 9 20 8 22-1 1-2 1-3 1-4 0-12-3-19-9l-36-36c-4-4-10-4-14 0-5 5-5 11 0 15l35 35c10 11 23 16 35 16 7 0 14-3 18-8 11-11 8-34-8-51l-32-32c-4-2-6-3-9-3z m-279-258c-7 0-11 5-11 11 0 155 185 371 210 395 3 2 6 3 10 3 3-1 6-3 7-6l56-126c2-6 0-12-6-14-5-2-12 0-14 5l-49 111c-45-50-193-236-193-368 0-6-4-11-10-11z m-7 7c-6 0-11 4-11 11 0 6 5 10 11 10 132 0 318 148 368 193l-111 49c-5 2-7 9-5 14 2 6 8 8 14 6l126-56c3-1 5-4 6-7 1-4 0-7-3-10-24-25-240-210-395-210z m3-3c-3 0-5 1-7 3-4 4-4 11 0 15l261 261c4 4 11 4 15 0 4-4 4-11 0-15l-261-261c-2-2-4-3-8-3z"/>
<glyph unicode="&#57357;" d="M501 0l-490 0c-4 0-7 1-9 4-2 3-2 7-2 10l93 316c1 4 5 7 9 7 5 0 9-2 11-5l47-87 96 260c1 4 5 7 10 7 4 0 8-2 9-6l236-491c1-3 1-8-1-11-1-2-5-4-9-4z m-476 21l459 0-217 453-96-259c-1-4-6-6-10-7-4 0-8 2-10 5l-44 86z"/>
<glyph unicode="&#57358;" d="M178 58c-87 0-147 56-149 58l-2 1-1 2c-3 9-63 186 9 287 31 44 82 67 153 67 1 0 4 0 7 0 30 0 132-11 182-143 30-9 106-31 115-60 2-8 0-16-7-23-25-26-150-32-213-33 18-20 43-54 36-88-4-25-24-44-58-57-24-7-48-11-72-11z m-132 72c11-8 62-51 132-51 21 0 43 4 64 12 27 9 42 23 45 40 5 32-33 74-48 87l-22 19 30 0c98 0 205 9 222 26 1 2 1 2 1 3 0 9-45 32-104 47l-5 1-3 5c-44 123-136 132-163 132-3 0-5 0-6 0-64 0-109-19-137-57-61-86-14-243-6-264z m245-63c-15 0-30 1-47 2l2 22c79-8 132 3 150 33 24 39-13 102-14 103l18 11c2-3 45-75 14-126-19-30-60-45-123-45z m-147 59c-26 0-46 20-46 46 0 25 20 46 46 46 26 0 46-21 46-46 0-26-20-46-46-46z m0 70c-14 0-25-10-25-24 0-14 11-25 25-25 14 0 25 11 25 25 0 14-11 24-25 24z m236-55c-24 0-51 0-85 1l2 21c62-2 132-1 169 1-12 3-29 7-52 11l3 21c86-15 95-22 94-35-1-8-2-20-131-20z m43-102c-76 0-174 22-190 26l4 20c78-18 207-36 248-16-11 7-41 16-101 21l1 21c72-5 120-19 126-38 2-6 0-12-4-15-15-14-47-19-84-19z m-19 112l22 0 0-99-22 0z m86 13l21 0 0-103-21 0z"/>
<glyph unicode="&#57359;" d="M194 352l-11 18c11 7 18 17 18 28 0 18-13 31-31 31-19 0-31-12-31-30 0-11 6-21 17-27l-11-18c-17 10-28 27-28 45 0 29 24 52 53 52 28 0 52-23 52-52 0-19-11-36-28-47z m170 0l-9 19c11 4 17 16 17 28 0 18-13 31-31 31-18 0-31-13-31-31 0-12 6-21 16-27l-10-18c-17 10-27 27-27 46 0 29 24 52 52 52 29 0 53-23 53-52 0-21-12-39-30-48z m-177-352c-4 0-8 1-11 2-17 7-27 25-20 42l46 136 0 59-52 26c-11 7-19 20-17 32l5 62c2 19 17 32 35 30 8-1 16-5 22-11 7-7 9-15 8-24l-4-43 47-22 19 0 45 22-3 43c-1 18 12 33 30 35 1 0 2 0 3 0 17 0 31-12 32-30l3-64c2-12-5-24-17-30l-52-27 0-63 46-132c6-17-2-36-19-42-3-1-8-1-11-1-13 0-25 9-30 21l-38 108-37-108c-5-12-16-21-30-21z m-17 369c-7 0-12-5-12-11l-4-64c0-4 2-8 6-11l63-32 0-76-48-141c-2-7 2-13 7-14 6-2 12 1 14 8l57 165 58-165c2-5 7-8 11-8 1 0 2 0 3 0 7 2 10 9 8 14l-48 137 0 80 64 32c3 1 6 5 6 10l-3 65c0 6-4 11-11 11-6-1-11-5-11-12l3-57-63-31-29 0-64 31 3 57c0 5-1 7-3 9-1 1-4 3-7 3z m88-86c-23 0-43 19-43 42 0 24 20 43 43 43 24 0 43-19 43-43 0-23-19-42-43-42z m0 64c-12 0-21-10-21-22 0-11 9-21 21-21 12 0 21 10 21 21 0 12-9 22-21 22z m-98 154l21 0 0-56-21 0z m171 0l21 0 0-56-21 0z"/>
<glyph unicode="&#57360;" d="M256 0c-55 0-159 10-159 48l0 325 21 0c4-9 54-26 138-26 84 0 134 17 138 26l21 0 0-325c0-38-104-48-159-48z m-138 348l0-300c4-10 54-27 138-27 84 0 134 17 138 27l0 300c-33-17-99-23-138-23-39 0-105 6-138 23z m138 91c-12 0-112 2-112 37 0 35 100 36 112 36 12 0 112-1 112-36 0-35-100-37-112-37z m-90 37c8-6 39-15 90-15 51 0 81 9 90 15-9 5-39 15-90 15-51 0-81-10-90-15z m90-113c-12 0-112 1-112 36l0 77 21 0c0 1 0 1 0 2 5-5 36-17 91-17 53 0 87 10 91 17 0 0 0-1 0-2l21 0 0-77c0-35-100-36-112-36z m-91 37c6-6 40-16 91-16 51 0 85 10 91 16l0 52c-30-13-82-13-91-13-9 0-61 0-91 13z m91-75c-55 0-159 10-159 48 0 17 19 30 56 39l12 3 0-14c6-6 37-17 91-17 51 0 85 10 91 16l0 14 12-3c36-8 56-22 56-39 0-37-104-47-159-47z m-109 63c-22-6-29-14-29-15 4-8 54-26 138-26 84 0 134 17 138 26 0 1-8 9-29 15-18-24-98-25-109-25-11 0-91 1-109 25z m72-260c-39 0-70 31-70 69 0 39 31 70 70 70 38 0 69-31 69-70 0-38-31-69-69-69z m0 117c-27 0-48-21-48-48 0-26 21-48 48-48 26 0 48 22 48 48 0 27-22 48-48 48z m74-154c-28 0-56 18-66 48l20 7c9-25 37-39 61-31 26 9 40 36 31 61-4 13-13 22-24 28-12 5-25 6-37 2l-7 20c18 7 36 5 53-3 16-9 29-22 35-41 13-36-7-75-43-88-9-2-16-3-23-3z"/>
<glyph unicode="&#57361;" d="M292 382c-36 0-65 29-65 65 0 36 29 65 65 65 37 0 65-29 65-65 0-36-28-65-65-65z m0 109c-24 0-43-20-43-44 0-25 19-44 43-44 25 0 44 19 44 44 0 24-19 44-44 44z m77-490c-4 0-11 0-16 3-16 8-23 28-15 45l40 80-70 34-34 0-178-133c-5-4-13-8-20-8-11 0-21 6-27 14-5 7-8 16-7 25 1 9 6 18 13 23l128 96c0 0-1 0-1 0-4-2-7-2-10-2-15 0-28 10-32 24l-34 106 138 69 98-8 116-96c7-6 11-14 11-23 1-10-2-19-7-26-12-14-35-16-48-4l-55 46 0-53 108-53-68-141c-4-10-17-18-30-18z m-102 184l47 0 92-45-48-99c-3-7-1-14 6-18l1-1c0 0 2 0 4 0 4 0 9 4 11 7l59 121-101 49 0 111 90-75c3-2 5-4 7-4 4 0 9 3 11 6 2 3 3 6 2 8 0 4-2 7-5 10l-110 92-86 7-117-57 28-90c2-5 7-9 13-9 0 0 1 0 1 0 4 1 6 5 8 8 1 2 2 5 1 8l-22 70 69 34 1-128-161-124c-3-2-5-5-5-8 0-4 1-6 2-9l1-1c2-3 5-5 10-5 2 0 4 0 6 2z m-80 87l16-51c3-9 2-17-2-26-2-2-3-4-4-5l13 9-1 84z"/>
<glyph unicode="&#57362;" d="M256 0c-141 0-256 115-256 256 0 141 115 256 256 256 141 0 256-115 256-256 0-141-115-256-256-256z m0 491c-129 0-235-106-235-235 0-129 106-235 235-235 129 0 235 106 235 235 0 129-106 235-235 235z m-98-460c-15 0-29 3-41 11l11 18c29-18 83-2 116 34 19 21 59 80-5 167-38 54-36 112 6 156 44 45 127 67 182 30l-12-17c-41 28-112 15-154-28-21-21-49-66-4-128 50-69 51-142 3-194-27-32-67-49-102-49z m13 87c-25 0-44 20-44 44 0 25 19 44 44 44 24 0 43-19 43-44 0-24-19-44-43-44z m0 67c-13 0-23-10-23-23 0-13 10-22 23-22 12 0 22 9 22 22 0 13-10 23-22 23z m175 92c-25 0-44 20-44 44 0 25 19 44 44 44 24 0 43-19 43-44 0-24-19-44-43-44z m0 66c-13 0-23-9-23-22 0-13 10-22 23-22 12 0 22 9 22 22 0 13-10 22-22 22z"/>
<glyph unicode="&#57363;" d="M274 395c-32 0-59 26-59 58 0 32 27 59 59 59 32 0 59-27 59-59 0-32-27-58-59-58z m0 96c-20 0-37-17-37-38 0-20 17-37 37-37 20 0 37 17 37 37 0 21-17 38-37 38z m-4-491c-2 0-7 0-11 2-17 7-26 26-21 43 11 36-11 114-27 159l-7 1c-21-42-48-64-81-67-4 0-7 0-10 0-56 0-100 57-109 69-10 16-7 36 8 47 6 4 13 6 20 6 11 0 20-5 27-14 11-16 38-42 55-40 3 0 12 3 25 27 4 7 7 22 8 27l14 74c-1 0-2 0-3 0-25 0-26-56-26-56 1-8-2-17-7-23-6-8-14-12-23-13l-3 0c-17 0-32 14-33 30-3 27-4 89 41 119 21 15 43 22 66 22 53 0 97-41 122-64 8-8 15-14 20-16 1-1 3-1 4-1 8 0 21 9 35 26 5 9 15 13 26 13 7 0 15-2 20-7 15-12 17-32 6-48-28-38-60-58-95-58-3 0-7 0-11 1-8 1-15 3-23 7l-6-40c15-41 46-140 27-201 0-15-13-25-28-25z m-78 227l35-5 2-5c5-13 46-124 29-179-2-7 3-15 9-17l1 0c0 0 1 0 2 0 5 0 11 5 13 9 18 59-17 160-28 190l-1 2 12 75 13-8c10-5 20-8 29-11 2 0 6 0 9 0 26 0 53 16 78 49 3 6 4 13-2 19-3 1-5 2-8 2-2 0-6-1-10-5-19-23-36-35-52-35-5 0-10 1-16 5-6 3-13 10-22 18-26 23-64 58-109 58-18 0-36-6-54-18-37-24-35-77-32-98 0-1 0-2 0-2 0-5 6-10 11-10l2 0c4 0 6 2 7 5 2 2 3 6 3 9 0 30 10 78 47 78 6 0 13-1 19-4l9-3-18-92c0-2-4-23-11-34-13-24-26-35-41-38-1 0-3 0-4 0-32 0-66 44-70 49-5 7-12 8-17 4-6-5-7-12-4-17 8-11 50-65 99-60 26 3 49 23 67 62z m247-221c-39 0-72 33-72 73 0 39 33 72 72 72 40 0 73-33 73-72 0-40-33-73-73-73z m0 124c-27 0-51-23-51-51 0-28 24-51 51-51 28 0 52 23 52 51 0 28-24 51-52 51z"/>
<glyph unicode="&#57364;" d="M180 452l158-288-19-10-158 288z m210-452c-1 0-2 0-3 0-3 1-5 2-6 5l-77 139c-3 5-1 12 4 14l30 18c2 1 5 2 9 1 3-1 5-2 6-5l77-139c3-5 1-12-4-14l-30-18c-1-1-3-1-6-1z m-63 145l68-119 11 7-66 120z m-266 233c-39 0-56 23-56 24-3 3-9 24-2 46 6 17 20 41 61 54 17 7 32 10 46 10 43 0 56-33 65-52l1-3c1-2 3-3 3-5 4-7 7-24-5-33-8-6-24-14-59-29-19-8-37-12-54-12z m-38 35c3-2 13-14 38-14 14 0 30 4 47 12 25 11 48 21 54 25 0 0 1 3 0 6-1 1-2 1-2 2-1 1-2 2-2 3l-2 5c-11 24-19 40-46 40-11 0-24-3-37-9-25-9-41-21-47-37-8-16-4-30-3-33z m309 39l19-10-158-288-19 10z m-210-452c-3 0-5 0-6 1l-30 18c-5 3-6 10-4 14l77 139c1 2 4 4 6 5 4 1 6 0 9-1l30-18c5-3 6-10 4-14l-77-139c-1-2-4-4-6-5-1 0-2 0-3 0z m-16 33l11-7 66 119-11 8z m345 345c-17 0-35 4-55 12-35 16-51 24-59 30-11 10-8 26-5 33 1 2 2 4 3 5l1 3c10 19 25 51 66 51 14 0 28-3 46-10 41-15 55-38 61-54 7-22 1-42-1-46-1-1-17-24-57-24z m-101 64c-1-3 0-6 0-6 6-5 28-15 54-26 17-8 33-12 47-12 25 0 35 12 38 14 1 3 4 17-3 33-7 16-22 29-47 37-13 7-26 9-37 9-27 0-35-16-46-40l-2-5c0-1-1-2-2-3 0 0-1 0-2-1z"/>
<glyph unicode="&#57365;" d="M205 378c-39 0-71 29-71 67 0 37 32 67 71 67 38 0 70-30 70-67 0-38-32-67-70-67z m0 113c-27 0-49-21-49-46 0-26 22-46 49-46 26 0 49 20 49 46 0 25-23 46-49 46z m179-491l-373 0-1 21c5 1 11 2 17 4 0 36-1 197 25 282 6 20 31 52 69 61 25 6 66 2 112-48 9-13 27-23 48-16 30 53 68 95 109 123l12 7 3-13c0-1 10-28 4-54 28-15 117-69 102-139 0-1-3-22-20-26-14-4-30 3-50 11-9 4-18 8-28 12l-8-37z m-308 21l289 0 19 170 15 70 14-14c0 0 1-1 1-1 13-4 24-9 35-13 15-7 29-13 36-11 2 1 5 6 6 11 14 65-97 119-98 120l-10 4 4 10c4 11 4 23 3 34-35-27-66-63-92-110l-3-3-3-1c-30-14-59 0-75 20-30 33-62 48-91 42-29-7-48-31-52-46-26-79-26-226-26-271 51 21 98 65 132 103-16 56-4 104-4 105l4 15 13-9c26-18 33-16 51-9l27 8-8-20c-2-4-3-8-4-13-2-6-5-13-6-19l-1-2c-6-6-81-121-176-170z m118 199c-2-15-3-39 3-65 20 23 31 40 34 46 2 3 3 7 5 10-13-2-25-1-42 9z"/>
<glyph unicode="&#57366;" d="M256 0c-141 0-256 115-256 256 0 141 115 256 256 256 141 0 256-115 256-256 0-141-115-256-256-256z m0 491c-129 0-235-106-235-235 0-129 106-235 235-235 129 0 235 106 235 235 0 129-106 235-235 235z m-2-168c-27 0-49 23-49 49 0 27 22 49 49 49 27 0 49-22 49-49 0-26-22-49-49-49z m0 77c-15 0-28-13-28-28 0-15 13-27 28-27 15 0 28 12 28 27 0 15-13 28-28 28z m-101-176c-27 0-50 22-50 49 0 27 23 49 50 49 26 0 49-22 49-49 0-27-23-49-49-49z m0 77c-15 0-28-13-28-28 0-15 13-28 28-28 14 0 27 13 27 28 0 15-13 28-27 28z m140-105c-26 0-49 23-49 49 0 27 23 49 49 49 27 0 49-22 49-49 0-26-22-49-49-49z m0 77c-15 0-27-13-27-28 0-15 12-27 27-27 15 0 28 12 28 27 0 15-13 28-28 28z"/>
<glyph unicode="&#57367;" d="M441 118c-24 0-48 8-63 14-57 26-144 89-215 138-20 15-38 28-53 37-26 18-85 61-87 106 0 17 9 32 26 45 11 8 22 12 33 12 39 0 62-50 66-63 56-49 207-170 270-170 91 0 94-52 94-56l0-2c-3-38-29-61-71-61z m-359 332c-6 0-13-3-20-8-12-9-17-17-17-28 0-34 57-75 77-89 15-10 33-23 53-38 65-47 156-111 210-137 13-5 34-11 54-11 31 0 47 14 51 42-1 5-8 34-73 34-84 0-277 171-286 179l-2 2-1 2c-3 15-22 52-46 52z m-22-256c-14 0-27 5-39 14-11 10-19 23-21 38-2 15 2 30 12 41 10 12 25 19 41 19 14 0 27-5 38-14 24-20 28-55 9-79-9-12-24-19-40-19z m-7 91c-9 0-19-4-24-12-6-6-9-15-8-24 1-10 7-19 14-25 15-13 38-11 49 2 12 14 9 36-6 49-8 7-16 10-25 10z m245-244c-14 0-27 5-38 13-11 10-19 24-21 39-2 15 2 30 12 40 9 12 24 20 41 20 14 0 27-6 39-14 24-21 28-56 9-79-10-13-25-19-42-19z m-6 89c-9 0-19-4-24-12-6-6-8-15-7-24 1-10 7-18 14-25 15-12 38-10 49 2 12 14 9 37-6 50-9 6-17 9-26 9z"/>
<glyph unicode="&#57368;" d="M256 16c-3 0-5 1-7 3l-246 237c-2 2-3 4-3 7 0 4 1 6 3 8l246 238c4 4 10 4 14 0l246-238c2-2 3-4 3-8 0-3-1-5-3-7l-246-237c-2-2-4-3-7-3z m-230 247l230-221 230 221-230 223z m383-263l-306 0c-4 0-8 2-9 6-2 5-1 9 2 12l153 148c4 5 10 5 14 0l153-148c3-3 4-7 2-12-2-4-5-6-9-6z m-279 21l253 0-127 123z m126 127c-6 0-11 5-11 11l0 336c0 6 5 11 11 11 6 0 11-5 11-11l0-336c0-6-5-11-11-11z m245 105c-3 0-5 1-7 3-74 73-153 109-235 109-137-2-240-108-241-109-4-4-11-4-15 0-4 4-4 11 0 15 4 4 109 113 255 114 1 0 2 0 4 0 88 0 171-38 247-114 4-4 4-11 0-15-2-2-4-3-8-3z"/>
</font>
</defs>
</svg>
